VERSION	0.00.00	1.03.00
FES_MODE	0
BPM_DEF	150.000	150.000	150.000	150.000
MET_DEF	4	4
RESOLUTION	384
CLK_DEF	384
COMPATIBLE_CODE	MA2

BPM	0	0	150.000
MET	0	0	4	4

TAP	1	0	3
TAP	1	96	4
TAP	1	192	3
TAP	1	288	4
TAP	2	0	3
TAP	2	96	4
TAP	2	192	3
TAP	2	288	4
TAP	3	0	3
TAP	3	96	4
TAP	3	192	3
TAP	3	288	4
TAP	4	0	7
TAP	4	72	2
TAP	4	144	1
TAP	4	144	6
TAP	5	0	2
TAP	5	96	1
TAP	5	96	6
TAP	5	192	5
TAP	5	288	1
TAP	5	288	6
TAP	6	0	0
TAP	6	96	0
TAP	6	192	2
TAP	6	192	6
TAP	6	288	0
TAP	6	288	1
TAP	7	0	3
TAP	7	0	5
TAP	7	96	6
TAP	7	96	7
TAP	7	192	2
TAP	7	192	4
TAP	7	288	0
TAP	7	288	1
TAP	8	0	1
HLD	8	0	5	96
TAP	8	96	1
HLD	8	192	2	96
TAP	8	192	6
TAP	8	288	6
TAP	9	0	0
HLD	9	0	1	96
TAP	9	96	7
HLD	9	192	6	96
TAP	9	192	7
TAP	9	288	0
TAP	10	0	3
TAP	10	0	5
TAP	10	96	6
TAP	10	96	7
TAP	10	192	2
TAP	10	192	4
TAP	10	288	0
TAP	10	288	1
HLD	11	0	5	96
HLD	11	96	2	96
HLD	11	192	3	96
TAP	11	288	4
STR	12	0	1
SI_	12	0	1	96	192	4
STR	12	0	5
SI_	12	0	5	96	192	0
BRK	13	0	1
BRK	13	0	6
HLD	14	0	3	96
HLD	14	96	4	96
HLD	14	192	3	96
HLD	14	288	4	96
HLD	15	0	1	192
TAP	15	96	3
HLD	15	192	6	192
TAP	15	288	4
HLD	16	0	1	384
TAP	16	96	3
TAP	16	192	5
TAP	16	288	3
TAP	17	0	6
TAP	17	96	3
TAP	17	192	1
TAP	17	288	4
HLD	18	0	2	96
HLD	18	0	3	96
HLD	18	192	4	96
HLD	18	192	5	96
HLD	19	0	5	96
HLD	19	96	4	96
HLD	19	192	2	96
TAP	19	288	3
HLD	20	0	2	96
HLD	20	96	3	96
HLD	20	192	5	96
TAP	20	288	4
TAP	21	0	5
TAP	21	96	3
TAP	21	192	4
TAP	21	288	2
HLD	22	0	3	96
HLD	22	96	0	96
TAP	22	192	6
TAP	22	288	2
TAP	22	288	5
HLD	23	0	4	96
HLD	23	96	3	96
HLD	23	192	4	96
HLD	23	288	3	96
HLD	24	0	6	192
TAP	24	96	5
HLD	24	192	1	96
TAP	24	288	2
HLD	25	0	0	96
HLD	25	0	6	96
HLD	25	192	2	96
HLD	25	192	4	96
TAP	26	0	0
TAP	26	96	0
TAP	26	192	0
TAP	27	0	1
TAP	27	0	5
TAP	27	96	3
TAP	27	192	2
TAP	27	192	6
TAP	27	288	4
STR	28	0	2
SI_	28	0	2	96	192	5
STR	28	0	6
SI_	28	0	6	96	192	1
TAP	29	0	7
TAP	29	192	4
TAP	29	288	3
TAP	30	0	4
TAP	30	0	5
TAP	30	96	2
TAP	30	96	3
TAP	30	192	4
TAP	30	192	5
BRK	30	288	2
TAP	31	0	3
TAP	31	96	4
TAP	31	192	2
TAP	31	192	3
TAP	31	288	4
TAP	31	288	5
TAP	32	0	3
TAP	32	96	4
TAP	32	192	2
TAP	32	192	3
TAP	32	288	4
TAP	32	288	5
TAP	33	0	3
TAP	33	96	4
TAP	33	192	2
TAP	33	192	3
TAP	33	288	4
TAP	33	288	5
TAP	34	0	2
TAP	34	0	3
TAP	34	96	2
TAP	34	96	3
TAP	34	192	1
HLD	34	192	4	96
TAP	34	288	1
TAP	35	0	3
TAP	35	96	4
TAP	35	192	2
TAP	35	192	3
TAP	35	288	4
TAP	35	288	5
TAP	36	0	3
TAP	36	96	4
TAP	36	192	2
TAP	36	192	3
TAP	36	288	4
TAP	36	288	5
TAP	37	0	2
TAP	37	0	3
TAP	37	96	4
TAP	37	96	5
TAP	37	192	2
TAP	37	192	3
TAP	37	288	4
TAP	37	288	5
TAP	38	0	6
TAP	38	72	3
BRK	38	144	0
TAP	39	0	2
TAP	39	96	1
TAP	39	96	6
TAP	39	192	5
TAP	39	288	1
TAP	39	288	6
TAP	40	0	0
TAP	40	96	0
TAP	40	192	2
TAP	40	192	6
TAP	40	288	0
TAP	40	288	1
TAP	41	0	3
TAP	41	0	5
TAP	41	96	6
TAP	41	96	7
TAP	41	192	2
TAP	41	192	4
TAP	41	288	0
TAP	41	288	1
TAP	42	0	1
HLD	42	0	5	96
TAP	42	96	1
HLD	42	192	2	96
TAP	42	192	6
TAP	42	288	6
TAP	43	0	0
HLD	43	0	1	96
TAP	43	96	7
HLD	43	192	6	96
TAP	43	192	7
TAP	43	288	0
TAP	44	0	3
TAP	44	0	5
TAP	44	96	6
TAP	44	96	7
TAP	44	192	2
TAP	44	192	4
TAP	44	288	0
TAP	44	288	1
HLD	45	0	5	96
HLD	45	96	2	96
HLD	45	192	3	96
TAP	45	288	4
STR	46	0	1
SI_	46	0	1	96	192	4
STR	46	0	5
SI_	46	0	5	96	192	0
BRK	47	0	1
BRK	47	0	6
STR	47	96	5
SI_	47	96	5	96	96	1
STR	47	288	2
SI_	47	288	2	96	96	6
TAP	48	192	2
TAP	48	192	5
STR	48	288	0
SCR	48	288	0	96	288	3
STR	48	288	7
SCL	48	288	7	96	288	4
TAP	50	0	0
HLD	50	0	6	96
TAP	50	96	0
HLD	50	192	1	96
TAP	50	192	7
TAP	50	288	7
STR	51	0	7
SCL	51	0	7	96	96	4
STR	51	288	3
SI_	51	288	3	96	96	7
STR	51	288	4
SI_	51	288	4	96	96	0
HLD	52	192	3	96
HLD	52	192	4	96
TAP	53	0	1
HLD	53	0	5	288
HLD	53	96	1	192
TAP	54	0	3
BRK	54	96	0
BRK	54	96	6
TAP	54	192	3
TAP	54	288	3
HLD	55	0	3	96
HLD	55	96	4	96
HLD	55	192	3	192
TAP	55	288	4
HLD	56	0	4	96
HLD	56	96	3	96
TAP	56	192	7
TAP	56	240	2
BRK	56	288	5

T_REC_TAP	187
T_REC_BRK	9
T_REC_XTP	0
T_REC_HLD	55
T_REC_XHO	0
T_REC_STR	13
T_REC_BST	0
T_REC_XST	0
T_REC_TTP	0
T_REC_THO	0
T_REC_SLD	13
T_REC_ALL	277
T_NUM_TAP	200
T_NUM_BRK	9
T_NUM_HLD	55
T_NUM_SLD	13
T_NUM_ALL	277
T_JUDGE_TAP	209
T_JUDGE_HLD	130
T_JUDGE_SLD	13
T_JUDGE_ALL	352
TTM_EACHPAIRS	73
TTM_SCR_TAP	100000
TTM_SCR_BRK	23400
TTM_SCR_HLD	55000
TTM_SCR_SLD	19500
TTM_SCR_ALL	197900
TTM_SCR_S	191100
TTM_SCR_SS	197000
TTM_RAT_ACV	10045

