VERSION	0.00.00	1.03.00
FES_MODE	0
BPM_DEF	150.000	150.000	150.000	150.000
MET_DEF	4	4
RESOLUTION	384
CLK_DEF	384
COMPATIBLE_CODE	MA2

BPM	0	0	150.000
MET	0	0	4	4

TAP	1	0	2
TAP	1	96	3
TAP	1	192	2
TAP	1	288	3
TAP	2	0	5
TAP	2	96	4
TAP	2	192	5
TAP	2	288	4
TAP	3	0	2
TAP	3	96	5
TAP	3	192	2
TAP	3	288	5
TAP	4	0	1
TAP	4	72	6
BRK	4	144	0
BRK	4	144	7
TAP	5	0	2
TAP	5	96	0
TAP	5	96	7
TAP	5	192	5
TAP	5	288	0
TAP	5	288	7
TAP	6	0	1
TAP	6	96	0
TAP	6	96	1
TAP	6	192	6
TAP	6	288	6
TAP	6	288	7
TAP	7	0	3
TAP	7	96	1
TAP	7	96	6
TAP	7	192	4
TAP	7	288	1
TAP	7	288	6
TAP	8	0	2
TAP	8	0	3
BRK	8	96	2
BRK	8	96	3
TAP	8	192	4
TAP	8	192	5
BRK	8	288	4
BRK	8	288	5
TAP	9	0	5
TAP	9	96	0
TAP	9	96	7
TAP	9	192	2
TAP	9	288	0
TAP	9	288	7
TAP	10	0	3
TAP	10	96	1
TAP	10	96	6
TAP	10	192	4
TAP	10	288	1
TAP	10	288	6
TAP	11	0	2
TAP	11	96	3
TAP	11	96	4
TAP	11	192	5
TAP	11	288	3
TAP	11	288	4
STR	12	0	0
SCL	12	0	0	96	192	5
STR	12	0	4
SCL	12	0	4	96	192	1
HLD	13	0	0	672
TAP	13	96	1
TAP	13	192	2
TAP	13	288	3
TAP	14	0	4
TAP	14	96	5
TAP	14	192	6
BRK	14	288	7
HLD	15	0	0	96
TAP	15	96	1
HLD	15	192	7	96
TAP	15	288	6
HLD	16	0	1	96
TAP	16	96	0
HLD	16	192	6	96
TAP	16	288	7
HLD	17	0	2	96
TAP	17	96	3
HLD	17	192	5	96
TAP	17	288	4
TAP	18	0	3
TAP	18	96	4
TAP	18	192	2
TAP	18	288	5
HLD	19	0	6	96
TAP	19	96	5
HLD	19	192	1	96
TAP	19	288	2
HLD	20	0	7	96
TAP	20	96	6
HLD	20	192	0	96
TAP	20	288	1
HLD	21	0	7	96
TAP	21	96	0
HLD	21	192	0	96
TAP	21	288	7
HLD	22	0	5	96
HLD	22	0	6	96
HLD	22	192	0	96
HLD	22	192	1	96
TAP	23	0	3
TAP	23	96	4
TAP	23	192	3
TAP	23	288	3
TAP	23	288	4
TAP	24	0	2
TAP	24	96	5
TAP	24	192	2
TAP	24	288	3
TAP	24	288	4
TAP	25	0	2
TAP	25	96	3
TAP	25	192	2
TAP	25	288	2
TAP	25	288	3
TAP	26	0	5
TAP	26	96	4
TAP	26	192	5
TAP	26	288	4
TAP	26	288	5
TAP	27	0	2
TAP	27	96	4
TAP	27	192	3
TAP	27	288	5
HLD	28	0	2	96
HLD	28	192	7	96
STR	29	0	0
SI_	29	0	0	96	48	3
STR	29	192	7
SI_	29	192	7	96	48	4
TAP	30	0	2
TAP	30	96	5
TAP	30	192	3
BRK	30	288	4
TAP	31	0	2
TAP	31	0	3
TAP	31	96	2
TAP	31	96	3
TAP	31	192	4
TAP	31	192	5
TAP	31	288	4
TAP	31	288	5
TAP	32	0	2
TAP	32	0	3
TAP	32	96	4
TAP	32	96	5
TAP	32	192	2
TAP	32	192	3
TAP	32	288	4
TAP	32	288	5
TAP	33	0	2
TAP	33	0	3
TAP	33	96	2
TAP	33	96	4
TAP	33	192	4
TAP	33	192	5
TAP	33	288	3
TAP	33	288	5
TAP	34	0	2
TAP	34	0	3
TAP	34	96	2
TAP	34	96	3
TAP	34	192	4
TAP	34	192	5
TAP	34	288	4
TAP	34	288	5
TAP	35	0	2
TAP	35	96	5
TAP	35	192	3
TAP	35	288	4
TAP	36	0	3
TAP	36	96	5
TAP	36	192	2
TAP	36	288	4
TAP	37	0	2
TAP	37	96	3
TAP	37	192	5
TAP	37	288	4
TAP	38	0	2
TAP	38	72	4
BRK	38	144	7
TAP	39	0	2
TAP	39	96	0
TAP	39	96	7
TAP	39	192	5
TAP	39	288	0
TAP	39	288	7
TAP	40	0	1
TAP	40	96	0
TAP	40	96	1
TAP	40	192	6
TAP	40	288	6
TAP	40	288	7
TAP	41	0	3
TAP	41	96	1
TAP	41	96	6
TAP	41	192	4
TAP	41	288	1
TAP	41	288	6
TAP	42	0	2
TAP	42	0	3
TAP	42	96	2
TAP	42	96	3
TAP	42	192	4
TAP	42	192	5
TAP	42	288	4
TAP	42	288	5
TAP	43	0	5
TAP	43	96	0
TAP	43	96	7
TAP	43	192	2
TAP	43	288	0
TAP	43	288	7
TAP	44	0	3
TAP	44	96	1
TAP	44	96	6
TAP	44	192	4
TAP	44	288	1
TAP	44	288	6
TAP	45	0	2
TAP	45	96	3
TAP	45	96	4
TAP	45	192	5
TAP	45	288	3
TAP	45	288	4
STR	46	0	0
SCL	46	0	0	96	192	5
STR	46	0	4
SCL	46	0	4	96	192	1
TAP	47	0	1
TAP	47	0	6
TAP	47	96	1
TAP	47	192	0
TAP	47	288	0
TAP	47	288	1
TAP	48	0	7
TAP	48	96	6
TAP	48	192	7
TAP	48	288	6
TAP	48	288	7
TAP	49	0	1
TAP	49	96	6
TAP	49	192	1
TAP	49	288	3
TAP	49	288	4
TAP	50	0	2
TAP	50	96	5
TAP	50	192	2
TAP	50	288	0
TAP	50	288	7
STR	51	0	0
SI_	51	0	0	96	48	4
STR	51	192	7
SI_	51	192	7	96	48	3
STR	52	0	1
SI_	52	0	1	96	48	5
STR	52	192	6
SI_	52	192	6	96	48	2
HLD	53	0	0	192
TAP	53	192	7
TAP	54	0	1
TAP	54	96	0
TAP	54	192	7
TAP	54	288	6
TAP	55	0	5
TAP	55	96	2
TAP	55	192	4
TAP	55	288	3
TAP	56	0	4
TAP	56	96	2
TAP	56	192	5
BRK	56	288	3

T_REC_TAP	226
T_REC_BRK	10
T_REC_XTP	0
T_REC_HLD	20
T_REC_XHO	0
T_REC_STR	10
T_REC_BST	0
T_REC_XST	0
T_REC_TTP	0
T_REC_THO	0
T_REC_SLD	10
T_REC_ALL	276
T_NUM_TAP	236
T_NUM_BRK	10
T_NUM_HLD	20
T_NUM_SLD	10
T_NUM_ALL	276
T_JUDGE_TAP	246
T_JUDGE_HLD	54
T_JUDGE_SLD	10
T_JUDGE_ALL	310
TTM_EACHPAIRS	62
TTM_SCR_TAP	118000
TTM_SCR_BRK	26000
TTM_SCR_HLD	20000
TTM_SCR_SLD	15000
TTM_SCR_ALL	179000
TTM_SCR_S	172700
TTM_SCR_SS	178000
TTM_RAT_ACV	10056

