VERSION	0.00.00	1.03.00
FES_MODE	0
BPM_DEF	150.000	150.000	150.000	150.000
MET_DEF	4	4
RESOLUTION	384
CLK_DEF	384
COMPATIBLE_CODE	MA2

BPM	0	0	150.000
MET	0	0	4	4

TAP	4	144	1
TAP	4	144	6
TAP	5	0	1
TAP	5	192	6
TAP	6	0	1
TAP	6	192	6
TAP	7	0	3
TAP	7	0	5
TAP	7	192	2
TAP	7	192	4
HLD	8	0	1	96
HLD	8	192	6	96
TAP	9	0	1
TAP	9	0	6
TAP	9	192	1
TAP	9	192	6
TAP	10	0	3
TAP	10	0	5
TAP	10	192	2
TAP	10	192	4
TAP	11	0	4
TAP	11	96	3
TAP	11	192	4
TAP	11	288	3
STR	12	0	2
SI_	12	0	2	96	96	5
TAP	13	0	1
TAP	13	0	6
TAP	15	0	1
TAP	15	192	6
HLD	16	0	1	192
TAP	17	0	7
TAP	17	192	0
TAP	18	0	2
TAP	18	0	3
TAP	18	192	4
TAP	18	192	5
TAP	19	0	5
TAP	19	96	6
TAP	20	0	2
TAP	20	96	1
TAP	21	0	6
TAP	21	96	1
TAP	22	96	1
TAP	22	192	6
TAP	22	288	0
TAP	22	288	7
HLD	24	0	7	96
HLD	24	192	0	95
TAP	25	0	0
TAP	25	0	7
TAP	25	192	3
TAP	25	192	4
BRK	26	192	1
TAP	27	0	2
TAP	27	0	5
TAP	27	192	2
TAP	27	192	5
STR	28	0	6
SI_	28	0	6	96	192	1
TAP	30	96	4
TAP	30	192	3
BRK	30	288	4
TAP	31	96	3
TAP	31	192	4
TAP	31	288	3
TAP	32	96	4
TAP	32	192	5
TAP	32	288	4
TAP	33	96	2
TAP	33	192	3
TAP	33	288	2
BRK	34	192	1
TAP	35	96	3
TAP	35	192	4
TAP	35	288	3
TAP	36	96	4
TAP	36	192	5
TAP	36	288	4
TAP	37	96	2
TAP	37	192	3
TAP	37	288	2
BRK	38	0	0
TAP	39	0	1
TAP	39	192	6
TAP	40	0	1
TAP	40	192	6
TAP	41	0	3
TAP	41	0	5
TAP	41	192	2
TAP	41	192	4
HLD	42	0	1	96
HLD	42	192	6	96
TAP	43	0	1
TAP	43	0	6
TAP	43	192	1
TAP	43	192	6
TAP	44	0	3
TAP	44	0	5
TAP	44	192	2
TAP	44	192	4
TAP	45	0	4
TAP	45	96	3
TAP	45	192	4
TAP	45	288	3
STR	46	0	2
SI_	46	0	2	96	96	5
TAP	47	0	1
TAP	47	0	6
TAP	47	192	6
TAP	48	0	1
TAP	48	192	3
TAP	48	192	4
TAP	49	0	1
TAP	49	0	6
BRK	50	0	1
BRK	50	192	6
BRK	51	0	2
BRK	51	96	2
TAP	52	192	3
TAP	52	192	4
TAP	53	0	1
BRK	53	96	1
TAP	54	96	2
TAP	54	96	7
TAP	56	192	0
BRK	56	288	1
BRK	56	288	6

T_REC_TAP	104
T_REC_BRK	11
T_REC_XTP	0
T_REC_HLD	7
T_REC_XHO	0
T_REC_STR	3
T_REC_BST	0
T_REC_XST	0
T_REC_TTP	0
T_REC_THO	0
T_REC_SLD	3
T_REC_ALL	128
T_NUM_TAP	107
T_NUM_BRK	11
T_NUM_HLD	7
T_NUM_SLD	3
T_NUM_ALL	128
T_JUDGE_TAP	118
T_JUDGE_HLD	16
T_JUDGE_SLD	3
T_JUDGE_ALL	137
TTM_EACHPAIRS	27
TTM_SCR_TAP	53500
TTM_SCR_BRK	28600
TTM_SCR_HLD	7000
TTM_SCR_SLD	4500
TTM_SCR_ALL	93600
TTM_SCR_S	89750
TTM_SCR_SS	92500
TTM_RAT_ACV	10118

