VERSION	0.00.00	1.03.00
FES_MODE	0
BPM_DEF	150.000	150.000	150.000	150.000
MET_DEF	4	4
RESOLUTION	384
CLK_DEF	384
COMPATIBLE_CODE	MA2

BPM	0	0	150.000
MET	0	0	4	4

STR	1	0	3
SCL	1	0	3	96	288	0
TAP	2	96	7
TAP	2	192	6
TAP	2	288	5
HLD	3	0	4	288
TAP	3	144	7
HLD	3	288	3	288
TAP	4	48	0
TAP	4	192	4
TAP	4	288	3
TAP	4	288	5
HLD	5	0	3	288
TAP	5	144	1
HLD	5	288	4	288
TAP	6	48	6
TAP	6	192	3
TAP	6	288	2
TAP	6	288	4
HLD	7	0	4	288
TAP	7	144	5
TAP	7	288	3
STR	7	336	3
SXR	7	336	3	96	240	5
STR	9	0	7
SLL	9	0	7	96	96	3
TAP	9	144	0
STR	9	192	0
SUR	9	192	0	96	96	4
TAP	9	336	6
STR	10	0	6
SCL	10	0	6	96	96	3
TAP	10	144	2
TAP	10	192	1
TAP	10	240	0
TAP	10	288	7
STR	10	336	7
SI_	10	336	7	96	192	2
TAP	11	48	3
STR	11	96	3
SI_	11	96	3	96	192	6
TAP	12	144	0
HLD	12	192	0	96
TAP	12	288	1
HLD	12	336	1	96
TAP	13	48	2
STR	13	96	2
SCR	13	96	2	96	96	5
TAP	13	336	6
HLD	14	0	6	192
TAP	14	96	0
HLD	14	192	1	192
TAP	14	288	7
HLD	15	0	4	192
TAP	15	96	5
HLD	15	192	3	192
TAP	15	288	2
TAP	16	0	4
TAP	16	96	2
TAP	16	96	5
TAP	16	192	3
TAP	16	240	4
TAP	16	288	2
TAP	16	288	5
STR	17	0	0
SLR	17	0	0	96	96	4
TAP	17	144	7
STR	17	192	7
SUL	17	192	7	96	96	3
TAP	17	336	1
STR	18	0	1
SCR	18	0	1	96	96	4
TAP	18	144	0
TAP	18	192	7
TAP	18	240	6
TAP	18	288	5
STR	18	336	5
SI_	18	336	5	96	192	0
TAP	19	48	1
STR	19	96	1
SI_	19	96	1	96	192	4
TAP	20	144	7
HLD	20	192	7	96
TAP	20	288	6
HLD	20	336	6	96
TAP	21	48	5
STR	21	96	5
SCL	21	96	5	96	96	2
TAP	21	336	0
HLD	22	0	0	96
TAP	22	96	1
HLD	22	144	1	96
TAP	22	240	2
TAP	22	336	3
HLD	23	0	4	144
TAP	23	144	5
HLD	23	192	6	144
TAP	23	336	7
TAP	24	0	0
TAP	24	0	6
TAP	24	96	1
TAP	24	96	5
TAP	24	192	2
TAP	24	192	4
STR	24	288	3
SCL	24	288	3	96	96	7
SCR	24	288	3	96	96	7
STR	25	192	4
SI_	25	192	4	96	24	0
BRK	25	288	6
HLD	26	0	7	96
TAP	26	96	0
HLD	26	144	0	288
TAP	26	240	7
TAP	26	336	3
TAP	27	48	7
TAP	27	144	1
TAP	27	192	0
TAP	27	240	7
TAP	27	288	2
TAP	27	288	6
TAP	27	336	1
TAP	27	336	5
HLD	28	0	0	96
TAP	28	96	7
HLD	28	144	7	288
TAP	28	240	0
TAP	28	336	4
TAP	29	48	0
TAP	29	144	6
TAP	29	192	7
TAP	29	240	0
TAP	29	288	1
TAP	29	288	5
TAP	29	336	2
TAP	29	336	6
STR	30	0	3
SI_	30	0	3	96	96	7
STR	30	96	7
SI_	30	96	7	96	96	4
STR	30	192	4
SI_	30	192	4	96	96	1
STR	30	288	1
SI_	30	288	1	96	96	5
TAP	31	0	7
TAP	31	96	7
TAP	31	144	6
TAP	31	192	5
TAP	31	240	4
TAP	31	288	3
TAP	31	336	2
STR	32	0	1
SCL	32	0	1	96	48	6
TAP	32	96	5
TAP	32	144	4
STR	32	192	3
SCR	32	192	3	96	48	6
TAP	32	288	0
STR	32	336	0
SF_	32	336	0	96	48	4
TAP	33	48	0
TAP	33	144	2
STR	33	192	4
SI_	33	192	4	96	24	0
TAP	33	216	3
TAP	33	240	4
BRK	33	288	4
TAP	33	288	6
HLD	34	0	1	96
TAP	34	96	7
HLD	34	144	7	288
TAP	34	240	6
TAP	34	336	3
TAP	35	48	6
TAP	35	144	6
TAP	35	192	7
TAP	35	240	0
TAP	35	288	1
TAP	35	288	5
TAP	35	336	2
TAP	35	336	6
HLD	36	0	7	96
TAP	36	96	0
HLD	36	144	0	288
TAP	36	240	1
TAP	36	336	4
TAP	37	48	1
TAP	37	144	1
TAP	37	192	0
TAP	37	240	7
TAP	37	288	2
TAP	37	288	6
TAP	37	336	1
TAP	37	336	5
STR	38	0	4
SCL	38	0	4	96	96	0
STR	38	96	0
SCL	38	96	0	96	96	4
STR	38	192	4
SCL	38	192	4	96	96	0
STR	38	288	0
SUL	38	288	0	96	96	7
TAP	39	0	3
TAP	39	96	3
TAP	39	144	2
TAP	39	192	1
TAP	39	240	0
TAP	39	288	7
TAP	39	336	6
STR	40	0	3
SV_	40	0	3	96	48	0
STR	40	0	5
SV_	40	0	5	96	48	0
STR	40	192	2
SV_	40	192	2	96	48	7
STR	40	192	4
SV_	40	192	4	96	48	7
STR	41	0	4
SI_	41	0	4	96	48	2
HLD	41	0	5	288
STR	41	96	4
SI_	41	96	4	96	48	1
STR	41	192	4
SI_	41	192	4	96	48	0
STR	41	288	4
SCR	41	288	4	96	576	2
TAP	42	0	4
TAP	42	96	4
TAP	42	144	4
TAP	42	240	4
TAP	42	288	4
TAP	43	0	4
TAP	43	48	4
TAP	43	144	4
TAP	43	192	4
TAP	43	288	0
TAP	43	288	5
STR	44	0	0
SUR	44	0	0	96	480	3
TAP	44	0	5
TAP	44	96	5
TAP	44	144	5
TAP	44	240	5
TAP	44	288	5
TAP	45	0	5
TAP	45	48	5
TAP	45	144	5
TAP	45	192	5
TAP	45	288	4
TAP	45	288	6
STR	46	0	4
SXR	46	0	4	96	480	1
TAP	46	0	6
TAP	46	96	6
TAP	46	144	6
TAP	46	240	6
TAP	46	288	6
TAP	47	0	6
TAP	47	48	6
TAP	47	144	6
TAP	47	192	6
TAP	47	288	0
TAP	47	288	7
STR	48	0	0
SXL	48	0	0	96	336	3
TAP	48	0	7
TAP	48	96	7
TAP	48	144	7
TAP	48	240	6
TAP	48	288	6
TAP	49	0	5
TAP	49	48	5
TAP	49	144	4
TAP	49	192	3
STR	49	192	4
SI_	49	192	4	96	24	0
BRK	49	288	6
STR	50	0	6
SI_	50	0	6	96	48	3
TAP	50	96	0
HLD	50	144	0	288
TAP	50	240	2
TAP	50	336	4
TAP	51	48	2
TAP	51	144	6
TAP	51	192	4
TAP	51	240	6
TAP	51	288	1
TAP	51	336	3
STR	52	0	1
SI_	52	0	1	96	48	4
TAP	52	96	7
HLD	52	144	7	288
TAP	52	240	5
TAP	52	336	3
TAP	53	48	5
TAP	53	144	3
TAP	53	192	6
TAP	53	240	3
TAP	53	288	4
TAP	53	336	1
STR	54	0	4
SI_	54	0	4	96	96	0
STR	54	96	0
SI_	54	96	0	96	96	5
STR	54	192	5
SI_	54	192	5	96	96	2
STR	54	288	2
SI_	54	288	2	96	96	6
TAP	55	0	0
TAP	55	96	0
TAP	55	144	0
TAP	55	192	4
TAP	55	240	1
TAP	55	288	5
TAP	55	336	2
STR	56	0	6
SCR	56	0	6	96	48	1
TAP	56	96	2
TAP	56	144	3
STR	56	192	4
SCL	56	192	4	96	48	1
TAP	56	288	5
TAP	56	336	5
TAP	57	0	4
TAP	57	48	4
TAP	57	96	3
TAP	57	144	3
STR	57	192	4
SI_	57	192	4	96	24	0
TAP	57	216	3
TAP	57	240	4
BRK	57	288	6
HLD	58	0	1	96
TAP	58	96	7
HLD	58	144	7	96
STR	58	240	4
SXR	58	240	4	96	48	2
STR	58	336	4
SXL	58	336	4	96	48	6
TAP	59	48	4
TAP	59	144	1
TAP	59	192	4
TAP	59	240	0
TAP	59	288	6
TAP	59	336	3
HLD	60	0	7	96
TAP	60	96	0
HLD	60	144	0	96
STR	60	240	3
SXL	60	240	3	96	48	5
STR	60	336	3
SXR	60	336	3	96	48	1
TAP	61	48	3
TAP	61	144	6
TAP	61	192	0
TAP	61	240	4
TAP	61	288	1
TAP	61	336	7
STR	62	0	3
SCR	62	0	3	96	96	7
STR	62	96	7
SCR	62	96	7	96	96	3
STR	62	192	3
SCR	62	192	3	96	96	7
STR	62	288	7
SUR	62	288	7	96	96	0
TAP	63	0	4
TAP	63	96	4
TAP	63	144	5
TAP	63	192	6
TAP	63	240	7
TAP	63	288	0
TAP	63	336	1
STR	64	0	2
SLL	64	0	2	96	48	4
STR	64	0	6
SLR	64	0	6	96	48	4
STR	64	192	1
SLL	64	192	1	96	48	3
STR	64	192	5
SLR	64	192	5	96	48	3
STR	65	0	4
SI_	65	0	4	96	48	2
TAP	65	0	5
STR	65	96	4
SI_	65	96	4	96	48	1
TAP	65	96	5
STR	65	192	4
SI_	65	192	4	96	48	0
TAP	65	192	5
STR	65	288	4
SCR	65	288	4	96	576	2
TAP	65	288	5
TAP	66	0	4
TAP	66	96	4
TAP	66	144	4
TAP	66	240	3
TAP	66	288	3
TAP	67	0	4
TAP	67	48	4
TAP	67	144	3
TAP	67	192	3
TAP	67	288	1
TAP	67	288	5
STR	68	0	0
SSL	68	0	0	96	480	4
TAP	68	0	4
TAP	68	96	4
TAP	68	144	4
TAP	68	240	5
TAP	68	288	5
TAP	69	0	6
TAP	69	48	6
TAP	69	144	7
TAP	69	192	7
TAP	69	288	2
TAP	69	288	5
TAP	70	0	6
TAP	70	48	2
TAP	70	96	1
TAP	70	96	3
TAP	70	192	1
TAP	70	240	5
TAP	70	288	4
TAP	70	288	6
TAP	71	0	5
TAP	71	48	1
TAP	71	96	0
TAP	71	96	2
TAP	71	192	2
TAP	71	240	6
TAP	71	288	5
TAP	71	288	7
TAP	72	0	3
TAP	72	0	5
TAP	72	48	6
TAP	72	96	7
TAP	72	144	2
TAP	72	144	4
TAP	72	192	1
TAP	72	240	0
TAP	72	288	2
TAP	72	288	6
TAP	72	336	7
TAP	73	0	0
TAP	73	48	1
TAP	73	48	5
TAP	73	96	0
TAP	73	144	7
TAP	73	192	6
TAP	73	192	7
TAP	73	240	0
TAP	73	240	5
TAP	73	288	1
TAP	73	288	4
TAP	73	336	2
TAP	73	336	3
TAP	74	0	2
TAP	74	48	3
TAP	74	96	4
HLD	74	144	5	96
TAP	74	240	6
TAP	74	288	7
HLD	74	336	0	96
TAP	75	48	1
TAP	75	96	2
HLD	75	144	3	96
TAP	75	240	4
STR	75	288	5
SXL	75	288	5	96	384	1
SXR	75	288	5	96	384	1
TAP	75	336	6

T_REC_TAP	298
T_REC_BRK	4
T_REC_XTP	0
T_REC_HLD	35
T_REC_XHO	0
T_REC_STR	67
T_REC_BST	0
T_REC_XST	0
T_REC_TTP	0
T_REC_THO	0
T_REC_SLD	69
T_REC_ALL	473
T_NUM_TAP	365
T_NUM_BRK	4
T_NUM_HLD	35
T_NUM_SLD	69
T_NUM_ALL	473
T_JUDGE_TAP	369
T_JUDGE_HLD	128
T_JUDGE_SLD	69
T_JUDGE_ALL	566
TTM_EACHPAIRS	47
TTM_SCR_TAP	182500
TTM_SCR_BRK	10400
TTM_SCR_HLD	35000
TTM_SCR_SLD	103500
TTM_SCR_ALL	331400
TTM_SCR_S	321100
TTM_SCR_SS	331000
TTM_RAT_ACV	10012

