VERSION	0.00.00	1.03.00
FES_MODE	0
BPM_DEF	150.000	150.000	150.000	150.000
MET_DEF	4	4
RESOLUTION	384
CLK_DEF	384
COMPATIBLE_CODE	MA2

BPM	0	0	150.000
MET	0	0	4	4

TAP	1	0	1
TAP	1	48	0
TAP	1	96	7
HLD	1	144	6	192
TAP	1	240	4
TAP	1	288	3
HLD	1	336	2	192
TAP	2	48	3
TAP	2	96	4
HLD	2	144	5	192
TAP	2	240	3
TAP	2	288	2
TAP	2	336	1
TAP	3	0	6
TAP	3	48	7
TAP	3	96	0
HLD	3	144	1	192
TAP	3	240	3
TAP	3	288	4
HLD	3	336	5	192
TAP	4	48	4
TAP	4	96	3
HLD	4	144	2	192
TAP	4	240	4
TAP	4	288	5
TAP	4	336	6
TAP	5	0	7
TAP	5	48	0
TAP	5	96	1
HLD	5	144	2	192
TAP	5	240	1
TAP	5	288	0
HLD	5	336	7	192
TAP	6	48	6
TAP	6	96	5
HLD	6	144	4	192
TAP	6	240	3
TAP	6	288	2
TAP	6	336	1
TAP	7	0	0
TAP	7	48	7
STR	7	96	6
SCR	7	96	6	96	96	1
TAP	7	144	6
BRK	7	288	6
BRK	7	336	6
TAP	8	144	2
TAP	8	192	2
TAP	8	240	1
TAP	8	288	1
TAP	8	336	0
HLD	9	0	6	144
TAP	9	144	5
HLD	9	192	5	144
TAP	9	336	4
HLD	10	0	4	144
TAP	10	144	3
TAP	10	192	4
TAP	10	240	5
TAP	10	288	6
STR	10	336	7
SI_	10	336	7	96	192	2
STR	11	96	3
SI_	11	96	3	96	192	6
TAP	12	144	7
HLD	12	192	0	96
TAP	12	288	1
HLD	12	336	2	96
TAP	13	48	3
HLD	13	96	4	240
TAP	13	336	5
HLD	14	0	6	96
HLD	14	96	7	96
HLD	14	192	0	96
HLD	14	288	1	96
HLD	15	0	5	192
HLD	15	192	4	192
TAP	15	336	3
TAP	16	0	3
TAP	16	144	1
TAP	16	192	2
TAP	16	240	3
TAP	16	288	4
TAP	16	336	5
HLD	17	0	2	144
TAP	17	144	4
HLD	17	192	4	144
TAP	17	336	6
HLD	18	0	6	144
TAP	18	144	1
TAP	18	192	2
TAP	18	240	3
TAP	18	288	4
STR	18	336	5
SI_	18	336	5	96	192	0
STR	19	96	1
SI_	19	96	1	96	192	4
TAP	20	144	5
HLD	20	192	4	96
TAP	20	288	3
HLD	20	336	3	96
TAP	21	48	2
HLD	21	96	1	240
TAP	21	336	2
HLD	22	0	3	96
TAP	22	96	4
TAP	22	144	3
TAP	22	240	4
TAP	22	336	2
TAP	22	336	6
HLD	23	0	3	96
HLD	23	0	7	96
TAP	23	144	0
TAP	23	144	4
HLD	23	192	1	96
HLD	23	192	5	96
TAP	23	336	2
TAP	23	336	6
TAP	24	0	3
TAP	24	96	4
TAP	24	192	5
HLD	24	288	6	288
STR	25	192	5
SI_	25	192	5	96	24	0
HLD	26	0	6	96
TAP	26	96	5
HLD	26	144	5	96
HLD	26	240	4	96
HLD	26	336	2	96
TAP	27	48	0
TAP	27	144	7
TAP	27	192	6
TAP	27	240	5
TAP	27	288	4
TAP	27	336	3
HLD	28	0	2	96
TAP	28	96	1
STR	28	144	0
SI_	28	144	0	96	48	3
STR	28	240	0
SI_	28	240	0	96	48	4
STR	28	336	0
SI_	28	336	0	96	48	5
TAP	29	144	6
TAP	29	192	7
TAP	29	240	0
TAP	29	288	1
TAP	29	336	2
STR	30	0	3
SCL	30	0	3	96	48	0
TAP	30	96	4
TAP	30	144	5
TAP	30	192	6
HLD	30	240	1	96
HLD	30	336	5	96
HLD	31	48	3	96
STR	31	144	7
SI_	31	144	7	96	48	4
TAP	31	192	0
TAP	31	240	1
TAP	31	288	2
TAP	31	336	3
HLD	32	0	4	192
TAP	32	144	2
HLD	32	192	2	96
TAP	32	288	6
HLD	32	336	6	96
TAP	33	48	5
HLD	33	144	6	48
STR	33	192	5
SI_	33	192	5	96	24	0
TAP	33	240	5
HLD	34	0	7	96
TAP	34	96	6
TAP	34	144	5
TAP	34	240	3
TAP	34	240	4
TAP	34	336	1
TAP	34	336	2
TAP	35	48	0
TAP	35	48	7
TAP	35	144	5
TAP	35	192	4
TAP	35	240	3
TAP	35	288	2
TAP	35	336	1
HLD	36	0	0	96
TAP	36	96	6
HLD	36	144	6	96
TAP	36	240	5
TAP	36	336	0
TAP	36	336	7
TAP	37	48	1
TAP	37	48	2
TAP	37	144	1
TAP	37	192	2
TAP	37	240	3
TAP	37	288	4
TAP	37	336	5
STR	38	0	6
SCR	38	0	6	96	96	1
TAP	38	96	5
TAP	38	144	4
TAP	38	192	3
TAP	38	240	2
TAP	38	336	0
TAP	38	336	1
TAP	39	48	6
TAP	39	48	7
TAP	39	144	5
TAP	39	192	6
TAP	39	240	7
TAP	39	288	0
TAP	39	336	1
HLD	40	0	2	144
TAP	40	144	3
HLD	40	192	3	96
TAP	40	336	4
STR	41	0	5
SI_	41	0	5	96	24	2
STR	41	96	5
SI_	41	96	5	96	24	1
STR	41	192	5
SI_	41	192	5	96	24	0
HLD	42	0	1	1248
HLD	43	192	7	97
HLD	44	0	0	672
HLD	45	192	2	672
HLD	46	0	3	672
HLD	47	192	4	288
TAP	48	0	5
TAP	48	48	5
HLD	48	96	6	480
STR	49	192	5
SI_	49	192	5	96	24	0
STR	50	0	0
SCL	50	0	0	96	24	5
HLD	50	144	4	96
HLD	50	240	3	96
HLD	50	336	2	96
TAP	51	48	0
TAP	51	144	4
TAP	51	192	3
TAP	51	240	2
TAP	51	288	1
TAP	51	336	0
STR	52	0	7
SCR	52	0	7	96	24	2
STR	52	144	3
SI_	52	144	3	96	24	6
STR	52	240	3
SI_	52	240	3	96	24	7
STR	52	336	3
SI_	52	336	3	96	24	0
TAP	53	144	1
TAP	53	192	2
TAP	53	240	1
TAP	53	288	0
TAP	53	336	7
STR	54	0	6
SCL	54	0	6	96	48	3
TAP	54	96	6
TAP	54	144	7
TAP	54	192	0
HLD	54	240	1	96
HLD	54	336	3	96
HLD	55	48	5	96
TAP	55	144	7
TAP	55	192	1
TAP	55	240	2
TAP	55	288	3
TAP	55	336	4
HLD	56	0	5	192
TAP	56	144	6
HLD	56	192	6	96
TAP	56	288	7
TAP	56	336	0
TAP	57	48	6
TAP	57	48	7
HLD	57	144	6	48
STR	57	192	5
SI_	57	192	5	96	24	0
TAP	57	240	5
TAP	58	0	0
TAP	58	96	1
TAP	58	96	7
TAP	58	144	3
TAP	58	144	5
BRK	58	240	1
BRK	58	240	5
BRK	58	336	2
BRK	58	336	6
BRK	59	48	3
BRK	59	48	7
TAP	59	144	7
TAP	59	192	6
TAP	59	240	5
TAP	59	288	4
TAP	59	336	3
HLD	60	0	2	96
TAP	60	96	1
TAP	60	144	1
BRK	60	240	1
BRK	60	240	2
BRK	60	336	3
BRK	60	336	4
BRK	61	48	5
BRK	61	48	6
TAP	61	144	7
TAP	61	192	6
TAP	61	240	5
TAP	61	288	4
TAP	61	336	3
TAP	62	0	1
TAP	62	0	2
TAP	62	96	1
HLD	62	144	1	96
HLD	62	240	3	96
HLD	62	336	5	96
HLD	63	48	7	96
TAP	63	144	0
TAP	63	192	2
TAP	63	240	4
STR	63	288	0
SI_	63	288	0	96	24	3
STR	63	288	6
SI_	63	288	6	96	24	3
TAP	63	336	0
TAP	63	336	6
TAP	64	144	4
TAP	64	192	3
HLD	64	336	5	336
TAP	65	0	6
TAP	65	96	7
TAP	65	192	0
STR	65	288	1
SCL	65	288	1	96	480	6
HLD	67	192	4	864
STR	68	0	7
SCR	68	0	7	96	576	2
TAP	70	0	0
TAP	70	0	6
TAP	70	96	7
TAP	70	192	2
TAP	70	192	4
TAP	70	288	3
TAP	71	0	3
TAP	71	0	5
TAP	71	96	4
TAP	71	192	0
TAP	71	192	1
TAP	71	240	2
TAP	71	240	7
TAP	71	288	3
TAP	71	288	6
BRK	71	336	4
BRK	71	336	5
TAP	72	0	0
HLD	72	48	0	96
TAP	72	144	2
HLD	72	192	2	96
TAP	72	288	4
HLD	72	336	4	96
TAP	73	48	6
TAP	73	96	5
TAP	73	144	4
TAP	73	192	3
TAP	73	240	2
TAP	73	288	1
TAP	73	336	0
TAP	74	0	7
TAP	74	48	7
TAP	74	96	0
HLD	74	144	1	192
TAP	74	240	2
TAP	74	288	3
HLD	74	336	4	192
TAP	75	48	5
TAP	75	96	6
HLD	75	144	6	192
TAP	75	240	7
STR	75	288	7
SCR	75	288	7	96	384	2
TAP	75	336	7

T_REC_TAP	231
T_REC_BRK	16
T_REC_XTP	0
T_REC_HLD	79
T_REC_XHO	0
T_REC_STR	29
T_REC_BST	0
T_REC_XST	0
T_REC_TTP	0
T_REC_THO	0
T_REC_SLD	29
T_REC_ALL	384
T_NUM_TAP	260
T_NUM_BRK	16
T_NUM_HLD	79
T_NUM_SLD	29
T_NUM_ALL	384
T_JUDGE_TAP	276
T_JUDGE_HLD	299
T_JUDGE_SLD	29
T_JUDGE_ALL	604
TTM_EACHPAIRS	31
TTM_SCR_TAP	130000
TTM_SCR_BRK	41600
TTM_SCR_HLD	79000
TTM_SCR_SLD	43500
TTM_SCR_ALL	294100
TTM_SCR_S	283750
TTM_SCR_SS	292500
TTM_RAT_ACV	10054

