VERSION	0.00.00	1.03.00
FES_MODE	0
BPM_DEF	150.000	150.000	150.000	150.000
MET_DEF	4	4
RESOLUTION	384
CLK_DEF	384
COMPATIBLE_CODE	MA2

BPM	0	0	150.000
MET	0	0	4	4

TAP	2	288	6
HLD	3	0	7	384
HLD	4	0	6	384
STR	5	0	0
SCR	5	0	0	96	192	3
STR	7	288	0
SCL	7	288	0	96	192	5
TAP	9	0	2
STR	9	96	2
SCL	9	96	2	96	192	7
TAP	10	192	5
TAP	10	240	4
TAP	10	288	5
STR	10	336	5
SCL	10	336	5	96	144	2
TAP	12	144	5
TAP	12	192	4
TAP	12	288	4
TAP	12	336	5
HLD	13	96	1	192
HLD	13	96	4	192
STR	14	0	3
SCL	14	0	3	96	192	0
HLD	14	0	4	288
STR	15	0	0
SI_	15	0	0	96	192	3
HLD	15	0	4	288
HLD	16	0	1	96
TAP	16	96	5
STR	16	192	1
SI_	16	192	1	96	96	4
STR	16	192	6
SI_	16	192	6	96	96	3
TAP	17	96	2
TAP	17	96	5
TAP	17	192	4
TAP	17	192	5
TAP	17	288	2
TAP	17	288	5
TAP	18	0	4
TAP	18	0	5
HLD	18	96	2	192
TAP	18	96	5
TAP	18	192	0
TAP	18	288	7
STR	19	0	0
SI_	19	0	0	96	96	3
STR	19	192	7
SI_	19	192	7	96	96	4
HLD	20	0	2	144
HLD	20	144	5	240
TAP	20	192	4
HLD	20	288	4	96
HLD	21	96	0	192
HLD	21	96	1	192
HLD	22	0	1	96
HLD	22	0	2	96
TAP	22	192	0
HLD	22	192	6	96
TAP	22	288	4
HLD	23	0	3	96
HLD	23	0	4	96
HLD	23	192	2	96
TAP	23	288	3
HLD	24	0	6	96
TAP	24	96	5
HLD	24	192	0	96
TAP	24	288	2
TAP	25	0	2
TAP	25	0	4
BRK	25	96	0
BRK	25	96	7
STR	25	192	5
SI_	25	192	5	96	48	0
TAP	26	0	5
TAP	26	96	1
TAP	26	96	2
TAP	26	192	3
TAP	26	288	0
TAP	26	288	7
TAP	27	0	7
TAP	27	96	3
TAP	27	96	4
TAP	27	192	2
TAP	27	240	3
TAP	27	288	5
TAP	27	336	4
TAP	28	0	1
TAP	28	0	6
TAP	28	96	0
TAP	28	96	7
TAP	28	192	6
TAP	28	192	7
TAP	28	288	0
TAP	28	288	1
STR	29	0	3
SCR	29	0	3	96	48	6
STR	29	0	7
SCR	29	0	7	96	48	2
HLD	29	192	3	96
STR	29	192	7
SCL	29	192	7	96	48	4
TAP	30	0	5
TAP	30	0	6
HLD	30	96	2	96
TAP	30	96	3
HLD	30	192	5	96
TAP	30	288	4
TAP	31	0	2
TAP	31	0	5
TAP	31	96	2
TAP	31	96	5
TAP	31	192	0
TAP	31	192	4
TAP	31	288	1
TAP	31	288	5
TAP	32	0	3
STR	32	0	7
SI_	32	0	7	96	48	2
TAP	32	96	3
STR	32	192	1
SI_	32	192	1	96	48	4
TAP	32	192	3
TAP	32	288	3
TAP	33	0	3
TAP	33	96	3
TAP	33	192	3
STR	33	192	5
SI_	33	192	5	96	48	0
STR	34	0	2
SI_	34	0	2	96	48	5
TAP	34	0	3
TAP	34	192	4
STR	34	192	5
SI_	34	192	5	96	48	2
TAP	35	0	3
TAP	35	0	4
STR	35	96	3
SCR	35	96	3	96	48	6
STR	35	96	4
SCL	35	96	4	96	48	1
TAP	35	288	0
TAP	35	288	7
TAP	36	0	0
HLD	36	0	6	384
TAP	36	96	4
TAP	36	192	5
TAP	36	288	1
STR	37	0	0
SCR	37	0	0	96	48	3
STR	37	192	7
SCL	37	192	7	96	48	4
TAP	38	0	5
TAP	38	0	6
HLD	38	96	2	96
TAP	38	96	3
HLD	38	192	5	96
TAP	38	288	4
TAP	39	0	2
TAP	39	0	5
TAP	39	96	2
TAP	39	96	5
TAP	39	192	0
TAP	39	192	4
TAP	39	288	1
TAP	39	288	5
HLD	40	0	1	96
HLD	40	192	1	96
HLD	40	192	2	96
TAP	41	0	2
TAP	41	0	5
STR	41	96	5
SI_	41	96	5	96	48	0
STR	41	192	4
SI_	41	192	4	96	48	1
HLD	42	0	0	288
HLD	42	0	4	288
TAP	43	0	0
TAP	43	0	4
TAP	43	96	2
TAP	43	96	6
HLD	43	192	3	576
STR	43	192	7
SI_	43	192	7	96	480	4
STR	45	192	3
SCL	45	192	3	96	480	0
HLD	45	192	4	576
HLD	47	192	5	576
STR	47	192	7
SCR	47	192	7	96	480	2
STR	49	192	5
SI_	49	192	5	96	48	0
TAP	50	0	5
TAP	50	96	1
TAP	50	96	2
TAP	50	192	3
TAP	50	288	0
TAP	50	288	7
TAP	51	0	7
TAP	51	96	3
TAP	51	96	4
TAP	51	192	2
TAP	51	240	3
TAP	51	288	5
TAP	51	336	4
TAP	52	0	1
TAP	52	0	6
TAP	52	96	0
TAP	52	96	7
TAP	52	192	6
TAP	52	192	7
TAP	52	288	0
TAP	52	288	1
STR	53	0	3
SCR	53	0	3	96	48	6
STR	53	0	7
SCR	53	0	7	96	48	2
HLD	53	192	3	96
STR	53	192	7
SCL	53	192	7	96	48	4
TAP	54	0	5
TAP	54	0	6
HLD	54	96	2	96
TAP	54	96	3
HLD	54	192	5	96
TAP	54	288	4
TAP	55	0	1
TAP	55	0	6
TAP	55	96	1
TAP	55	96	6
TAP	55	192	0
TAP	55	192	4
TAP	55	288	1
TAP	55	288	5
HLD	56	0	3	96
STR	56	0	7
SI_	56	0	7	96	48	2
STR	56	192	1
SI_	56	192	1	96	48	4
HLD	56	192	3	96
HLD	57	0	3	96
TAP	57	96	5
TAP	57	192	3
STR	57	192	5
SI_	57	192	5	96	48	0
STR	58	0	2
SI_	58	0	2	96	48	5
TAP	58	0	3
TAP	58	192	4
STR	58	192	5
SI_	58	192	5	96	48	2
TAP	59	0	3
TAP	59	0	4
STR	59	96	3
SCR	59	96	3	96	48	6
STR	59	96	4
SCL	59	96	4	96	48	1
TAP	59	288	0
TAP	59	288	7
TAP	60	0	0
HLD	60	0	6	384
TAP	60	96	4
TAP	60	192	5
TAP	60	288	1
STR	61	0	0
SCR	61	0	0	96	48	3
STR	61	192	7
SCL	61	192	7	96	48	4
TAP	62	0	5
TAP	62	0	6
HLD	62	96	2	96
TAP	62	96	3
HLD	62	192	5	96
TAP	62	288	4
TAP	63	0	2
TAP	63	0	5
TAP	63	96	2
TAP	63	96	5
TAP	63	192	0
TAP	63	192	4
TAP	63	288	1
TAP	63	288	5
HLD	64	0	1	144
HLD	64	192	1	144
HLD	64	192	2	144
TAP	65	0	2
TAP	65	0	5
STR	65	96	5
SI_	65	96	5	96	48	0
STR	65	192	4
SI_	65	192	4	96	48	1
HLD	66	0	0	288
HLD	66	0	4	288
TAP	67	0	1
TAP	67	0	5
TAP	67	96	2
TAP	67	96	6
HLD	67	192	3	864
STR	67	192	7
SI_	67	192	7	96	384	4
TAP	69	0	1
TAP	69	96	1
HLD	69	192	6	96
TAP	70	0	0
HLD	70	0	4	96
TAP	70	96	0
TAP	70	192	2
TAP	70	192	5
TAP	70	240	3
TAP	70	240	4
TAP	70	288	2
TAP	70	288	5
HLD	71	0	2	96
TAP	71	0	5
TAP	71	96	3
TAP	71	192	2
TAP	71	192	5
TAP	71	240	3
TAP	71	240	4
TAP	71	288	2
TAP	71	288	5
TAP	72	0	3
TAP	72	0	6
STR	72	96	0
SI_	72	96	0	96	96	3
TAP	72	96	4
TAP	72	288	4
TAP	73	0	1
TAP	73	0	3
STR	73	96	0
SI_	73	96	0	96	96	4
TAP	73	96	6
BRK	73	288	0
STR	74	0	0
SI_	74	0	0	96	672	3

T_REC_TAP	185
T_REC_BRK	3
T_REC_XTP	0
T_REC_HLD	53
T_REC_XHO	0
T_REC_STR	47
T_REC_BST	0
T_REC_XST	0
T_REC_TTP	0
T_REC_THO	0
T_REC_SLD	47
T_REC_ALL	335
T_NUM_TAP	232
T_NUM_BRK	3
T_NUM_HLD	53
T_NUM_SLD	47
T_NUM_ALL	335
T_JUDGE_TAP	235
T_JUDGE_HLD	217
T_JUDGE_SLD	47
T_JUDGE_ALL	499
TTM_EACHPAIRS	101
TTM_SCR_TAP	116000
TTM_SCR_BRK	7800
TTM_SCR_HLD	53000
TTM_SCR_SLD	70500
TTM_SCR_ALL	247300
TTM_SCR_S	239600
TTM_SCR_SS	247000
TTM_RAT_ACV	10012

