VERSION	0.00.00	1.03.00
FES_MODE	0
BPM_DEF	150.000	150.000	150.000	150.000
MET_DEF	4	4
RESOLUTION	384
CLK_DEF	384
COMPATIBLE_CODE	MA2

BPM	0	0	150.000
MET	0	0	4	4

HLD	1	0	0	672
HLD	3	0	1	672
HLD	5	0	7	672
HLD	7	0	6	384
BRK	8	0	1
TAP	9	0	1
TAP	9	192	1
TAP	10	0	0
TAP	10	192	0
TAP	11	0	6
TAP	11	192	6
TAP	12	0	7
TAP	12	192	7
TAP	13	0	2
TAP	13	192	2
TAP	14	0	3
TAP	14	192	3
TAP	15	0	5
TAP	15	192	5
BRK	16	0	4
TAP	17	0	0
TAP	17	96	0
TAP	17	192	1
TAP	18	0	7
TAP	18	96	7
TAP	18	192	6
TAP	19	0	1
TAP	19	96	1
TAP	19	192	2
TAP	20	0	6
TAP	20	96	6
TAP	20	192	5
TAP	21	0	2
TAP	21	96	3
TAP	21	192	4
TAP	22	0	5
TAP	22	96	4
TAP	22	192	3
TAP	23	0	3
TAP	23	96	4
TAP	23	192	3
TAP	23	192	4
TAP	24	0	2
TAP	24	96	5
TAP	24	192	1
HLD	24	288	6	288
BRK	25	288	0
BRK	25	288	7
HLD	26	0	1	96
TAP	26	96	0
HLD	26	192	4	96
TAP	26	288	3
HLD	27	0	7	96
TAP	27	96	6
HLD	27	192	5	96
TAP	27	288	2
STR	28	0	0
SI_	28	0	0	96	48	3
STR	28	192	7
SI_	28	192	7	96	48	4
STR	29	0	1
SI_	29	0	1	96	48	4
STR	29	192	6
SI_	29	192	6	96	48	3
TAP	30	0	1
TAP	30	96	0
TAP	30	192	7
TAP	30	288	6
TAP	31	0	5
TAP	31	96	4
TAP	31	192	3
TAP	31	288	2
TAP	32	0	0
TAP	32	0	1
TAP	32	96	1
TAP	32	192	6
TAP	32	192	7
TAP	32	288	6
TAP	33	0	2
TAP	33	0	3
TAP	33	96	2
TAP	33	192	4
TAP	33	192	5
BRK	33	288	5
HLD	34	0	6	96
TAP	34	96	7
HLD	34	192	2	96
TAP	34	288	3
HLD	35	0	0	96
TAP	35	96	1
HLD	35	192	4	96
TAP	35	288	5
STR	36	0	7
SI_	36	0	7	96	48	4
STR	36	192	0
SI_	36	192	0	96	48	3
STR	37	0	6
SI_	37	0	6	96	48	3
STR	37	192	1
SI_	37	192	1	96	48	4
TAP	38	0	6
TAP	38	96	7
TAP	38	192	0
TAP	38	288	1
TAP	39	0	2
TAP	39	96	3
TAP	39	192	4
TAP	39	288	5
TAP	40	0	6
TAP	40	0	7
TAP	40	96	6
TAP	40	96	7
TAP	40	192	0
TAP	40	192	1
TAP	40	288	0
TAP	40	288	1
TAP	41	0	4
TAP	41	0	5
TAP	41	96	4
TAP	41	96	5
TAP	41	192	2
TAP	41	192	3
BRK	41	288	2
BRK	41	288	3
HLD	42	0	0	576
HLD	43	192	1	192
HLD	44	0	2	576
HLD	45	192	1	192
HLD	46	0	0	576
HLD	47	192	7	192
TAP	48	0	6
TAP	48	48	6
HLD	48	96	6	288
BRK	49	288	0
BRK	49	288	1
HLD	50	0	1	96
TAP	50	96	0
HLD	50	192	5	96
TAP	50	288	4
HLD	51	0	7	96
TAP	51	96	6
HLD	51	192	3	96
TAP	51	288	2
STR	52	0	0
SI_	52	0	0	96	48	4
STR	52	192	7
SI_	52	192	7	96	48	3
STR	53	0	0
SCR	53	0	0	96	48	3
STR	53	192	7
SCL	53	192	7	96	48	4
TAP	54	0	0
TAP	54	96	1
TAP	54	192	2
TAP	54	288	3
TAP	55	0	4
TAP	55	96	5
TAP	55	192	6
TAP	55	288	7
TAP	56	0	0
TAP	56	0	7
TAP	56	96	0
TAP	56	96	7
TAP	56	192	3
TAP	56	192	4
TAP	56	288	3
TAP	56	288	4
TAP	57	0	0
TAP	57	0	1
TAP	57	96	0
TAP	57	96	1
TAP	57	192	6
TAP	57	192	7
BRK	57	288	6
BRK	57	288	7
HLD	58	0	6	96
TAP	58	96	7
HLD	58	192	3	96
TAP	58	288	4
HLD	59	0	0	96
TAP	59	96	1
HLD	59	192	2	96
TAP	59	288	5
STR	60	0	7
SI_	60	0	7	96	48	4
STR	60	192	0
SI_	60	192	0	96	48	3
STR	61	0	6
SI_	61	0	6	96	48	1
STR	61	192	2
SI_	61	192	2	96	48	5
TAP	62	0	6
TAP	62	96	7
TAP	62	192	0
TAP	62	288	1
TAP	63	0	2
TAP	63	96	3
TAP	63	192	4
TAP	63	288	5
TAP	64	0	1
TAP	64	0	6
TAP	64	96	1
TAP	64	96	6
TAP	64	192	2
TAP	64	192	5
TAP	64	288	2
TAP	64	288	5
TAP	65	0	4
TAP	65	0	5
TAP	65	96	3
TAP	65	96	6
TAP	65	192	2
TAP	65	192	7
BRK	65	288	0
BRK	65	288	1
HLD	66	0	0	576
HLD	67	192	1	192
HLD	68	0	2	672
HLD	70	0	3	384
HLD	71	0	4	192
HLD	71	192	5	192
HLD	72	0	6	576
HLD	73	192	7	192
STR	74	0	0
SI_	74	0	0	96	576	4

T_REC_TAP	142
T_REC_BRK	13
T_REC_XTP	0
T_REC_HLD	36
T_REC_XHO	0
T_REC_STR	17
T_REC_BST	0
T_REC_XST	0
T_REC_TTP	0
T_REC_THO	0
T_REC_SLD	17
T_REC_ALL	225
T_NUM_TAP	159
T_NUM_BRK	13
T_NUM_HLD	36
T_NUM_SLD	17
T_NUM_ALL	225
T_JUDGE_TAP	172
T_JUDGE_HLD	204
T_JUDGE_SLD	17
T_JUDGE_ALL	393
TTM_EACHPAIRS	31
TTM_SCR_TAP	79500
TTM_SCR_BRK	33800
TTM_SCR_HLD	36000
TTM_SCR_SLD	25500
TTM_SCR_ALL	174800
TTM_SCR_S	168300
TTM_SCR_SS	173500
TTM_RAT_ACV	10074

