VERSION	0.00.00	1.03.00
FES_MODE	0
BPM_DEF	150.000	150.000	150.000	150.000
MET_DEF	4	4
RESOLUTION	384
CLK_DEF	384
COMPATIBLE_CODE	MA2

BPM	0	0	150.000
MET	0	0	4	4

HLD	9	0	2	384
HLD	11	0	5	384
HLD	13	0	1	192
HLD	14	0	0	192
STR	15	0	0
SI_	15	0	0	96	288	3
TAP	17	96	2
TAP	17	288	2
TAP	18	96	2
TAP	18	288	0
TAP	19	96	0
TAP	19	288	7
TAP	20	96	5
HLD	21	96	1	192
TAP	22	96	1
TAP	22	288	6
TAP	23	96	3
TAP	23	96	4
TAP	23	288	2
TAP	24	96	1
TAP	24	288	5
BRK	25	288	0
TAP	26	96	1
TAP	26	192	1
TAP	26	288	0
TAP	27	96	4
TAP	27	192	3
TAP	27	288	4
TAP	28	96	6
TAP	28	192	7
TAP	28	288	0
TAP	29	96	0
TAP	29	192	1
TAP	29	288	2
TAP	30	96	5
TAP	30	192	2
TAP	30	288	4
TAP	30	288	5
TAP	31	96	1
TAP	31	96	6
TAP	31	288	1
STR	32	96	0
SCL	32	96	0	96	192	5
BRK	33	288	0
TAP	34	96	5
TAP	34	288	2
TAP	35	96	5
TAP	35	288	2
TAP	36	96	1
TAP	36	192	0
TAP	36	288	2
TAP	37	96	6
TAP	37	192	7
TAP	37	288	5
TAP	38	96	5
TAP	38	192	2
TAP	38	288	4
TAP	38	288	5
TAP	39	96	1
TAP	39	96	6
HLD	40	0	1	96
HLD	40	192	1	96
HLD	40	192	2	96
TAP	41	0	7
TAP	41	96	7
TAP	41	192	0
TAP	41	288	0
HLD	42	0	0	384
STR	43	192	7
SI_	43	192	7	96	288	4
STR	45	192	3
SI_	45	192	3	96	288	0
STR	47	192	0
SCR	47	192	0	96	288	3
BRK	49	288	0
TAP	50	96	1
TAP	50	192	1
TAP	50	288	0
TAP	51	96	4
TAP	51	192	3
TAP	51	288	4
TAP	52	96	6
TAP	52	192	7
TAP	52	288	0
TAP	53	96	0
TAP	53	192	1
TAP	53	288	2
TAP	54	96	5
TAP	54	192	2
TAP	54	288	4
TAP	54	288	5
TAP	55	96	1
TAP	55	96	6
TAP	55	288	1
STR	56	96	0
SCL	56	96	0	96	192	5
BRK	57	288	0
TAP	58	96	5
TAP	58	288	2
TAP	59	96	5
TAP	59	288	2
TAP	60	96	1
TAP	60	192	0
TAP	60	288	2
TAP	61	96	6
TAP	61	192	7
TAP	61	288	5
TAP	62	96	5
TAP	62	192	2
TAP	62	288	4
TAP	62	288	5
TAP	63	96	1
TAP	63	96	6
HLD	64	0	1	96
HLD	64	192	1	96
HLD	64	192	2	96
TAP	65	0	7
TAP	65	96	7
TAP	65	192	0
TAP	65	288	0
HLD	66	0	0	384
STR	67	192	7
SI_	67	192	7	96	480	4
TAP	70	96	0
TAP	70	192	0
TAP	70	288	2
TAP	70	288	5
TAP	71	96	4
TAP	71	192	3
TAP	71	288	2
TAP	71	288	5
TAP	72	96	6
TAP	72	192	0
TAP	72	288	7
TAP	73	96	2
TAP	73	192	1
STR	74	0	0
SI_	74	0	0	96	480	3

T_REC_TAP	105
T_REC_BRK	4
T_REC_XTP	0
T_REC_HLD	13
T_REC_XHO	0
T_REC_STR	8
T_REC_BST	0
T_REC_XST	0
T_REC_TTP	0
T_REC_THO	0
T_REC_SLD	8
T_REC_ALL	138
T_NUM_TAP	113
T_NUM_BRK	4
T_NUM_HLD	13
T_NUM_SLD	8
T_NUM_ALL	138
T_JUDGE_TAP	117
T_JUDGE_HLD	56
T_JUDGE_SLD	8
T_JUDGE_ALL	181
TTM_EACHPAIRS	13
TTM_SCR_TAP	56500
TTM_SCR_BRK	10400
TTM_SCR_HLD	13000
TTM_SCR_SLD	12000
TTM_SCR_ALL	91900
TTM_SCR_S	88800
TTM_SCR_SS	91500
TTM_RAT_ACV	10043

