VERSION	0.00.00	1.03.00
FES_MODE	0
BPM_DEF	135.000	135.000	135.000	135.000
MET_DEF	4	4
RESOLUTION	384
CLK_DEF	384
COMPATIBLE_CODE	MA2

BPM	0	0	135.000
MET	0	0	4	4

STR	1	0	2
SCL	1	0	2	96	48	7
TAP	1	24	3
TAP	1	72	3
TAP	1	96	2
STR	1	144	6
SI_	1	144	6	96	48	2
TAP	1	168	6
TAP	1	240	0
TAP	1	288	1
TAP	1	336	2
STR	2	0	1
SCR	2	0	1	96	48	4
TAP	2	24	0
TAP	2	72	0
TAP	2	96	1
STR	2	144	7
SI_	2	144	7	96	48	3
TAP	2	168	7
BRK	2	240	6
STR	3	0	5
SCR	3	0	5	96	48	0
TAP	3	24	4
TAP	3	72	4
TAP	3	96	5
STR	3	144	1
SI_	3	144	1	96	48	5
TAP	3	168	1
TAP	3	240	7
TAP	3	288	6
TAP	3	336	5
STR	4	0	6
SCL	4	0	6	96	48	3
TAP	4	24	7
TAP	4	72	7
TAP	4	96	6
TAP	4	144	2
HLD	4	168	2	120
TAP	4	240	3
TAP	4	264	4
TAP	4	288	5
TAP	4	312	6
TAP	4	336	7
TAP	4	360	0
STR	5	0	1
SI_	5	0	1	96	48	5
TAP	5	24	1
TAP	5	72	4
TAP	5	96	4
STR	5	144	6
SI_	5	144	6	96	48	2
TAP	5	168	6
TAP	5	240	5
TAP	5	288	4
TAP	5	336	3
STR	6	0	2
SI_	6	0	2	96	48	6
TAP	6	24	2
TAP	6	72	7
TAP	6	96	7
STR	6	144	5
SI_	6	144	5	96	48	1
TAP	6	168	5
TAP	6	240	0
TAP	6	264	0
TAP	6	288	7
TAP	6	336	6
TAP	7	0	5
HLD	7	24	5	72
TAP	7	72	4
HLD	7	96	4	72
TAP	7	144	3
HLD	7	168	3	72
TAP	7	216	2
TAP	7	240	2
STR	7	288	1
SI_	7	288	1	96	48	4
STR	8	0	5
SI_	8	0	5	96	48	0
TAP	8	48	6
STR	8	96	2
SI_	8	96	2	96	48	7
TAP	8	144	1
STR	8	192	6
SI_	8	192	6	96	48	3
TAP	8	240	5
TAP	8	288	0
BRK	9	0	0
BRK	9	0	7
TAP	9	96	7
TAP	9	120	6
TAP	9	168	7
TAP	9	216	0
TAP	9	240	1
TAP	9	288	2
TAP	9	288	3
TAP	10	0	4
STR	10	48	6
SCL	10	48	6	96	48	3
TAP	10	96	2
TAP	10	120	2
STR	10	168	1
SI_	10	168	1	96	48	6
TAP	10	216	2
TAP	10	240	2
STR	10	288	5
SI_	10	288	5	96	48	2
TAP	10	336	3
TAP	11	0	1
TAP	11	96	0
TAP	11	120	1
TAP	11	168	0
TAP	11	216	7
TAP	11	240	6
STR	11	288	7
SCL	11	288	7	96	48	4
TAP	11	336	0
STR	12	0	7
SI_	12	0	7	96	48	3
TAP	12	96	7
STR	12	144	0
SCR	12	144	0	96	48	3
STR	12	240	0
SI_	12	240	0	96	48	4
TAP	12	336	5
TAP	12	360	5
TAP	13	96	0
TAP	13	120	1
TAP	13	168	0
TAP	13	216	7
TAP	13	240	6
TAP	13	288	4
TAP	13	288	5
TAP	14	0	3
STR	14	48	1
SCR	14	48	1	96	48	4
TAP	14	96	5
TAP	14	120	5
STR	14	168	6
SI_	14	168	6	96	48	1
TAP	14	216	5
TAP	14	240	5
STR	14	288	2
SI_	14	288	2	96	48	5
TAP	14	336	4
TAP	15	0	7
TAP	15	24	7
TAP	15	72	0
TAP	15	120	1
TAP	15	144	2
TAP	15	168	3
TAP	15	216	6
TAP	15	264	7
TAP	15	288	0
TAP	15	312	1
TAP	15	360	7
TAP	16	0	6
TAP	16	48	7
TAP	16	96	0
TAP	16	144	1
TAP	16	192	0
TAP	16	216	7
TAP	16	240	6
TAP	16	264	5
TAP	16	288	6
TAP	16	300	7
TAP	16	312	0
TAP	16	324	1
TAP	16	336	2
TAP	16	348	3
TAP	16	360	4
TAP	16	372	5
STR	17	0	6
SI_	17	0	6	96	48	1
TAP	17	48	0
TAP	17	72	0
STR	17	96	6
SI_	17	96	6	96	48	2
TAP	17	144	0
TAP	17	168	0
STR	17	192	6
SCL	17	192	6	96	48	3
TAP	17	240	0
TAP	17	264	0
TAP	17	288	6
STR	18	0	1
SI_	18	0	1	96	48	6
TAP	18	48	7
TAP	18	72	7
STR	18	96	1
SI_	18	96	1	96	48	5
TAP	18	144	7
TAP	18	168	7
STR	18	192	1
SCR	18	192	1	96	48	4
TAP	18	240	7
TAP	18	264	7
TAP	18	288	1
TAP	18	336	7
STR	19	0	6
SI_	19	0	6	96	48	1
TAP	19	48	0
TAP	19	72	0
STR	19	96	6
SI_	19	96	6	96	48	2
TAP	19	144	0
TAP	19	168	0
STR	19	192	6
SCL	19	192	6	96	48	3
TAP	19	240	0
TAP	19	264	0
TAP	19	288	6
TAP	20	0	1
TAP	20	24	1
TAP	20	72	0
TAP	20	96	7
TAP	20	120	0
TAP	20	168	1
TAP	20	192	2
TAP	20	216	3
TAP	20	240	4
TAP	20	264	5
TAP	20	312	3
TAP	20	312	6
STR	21	0	1
SI_	21	0	1	96	48	6
TAP	21	48	7
TAP	21	72	7
STR	21	96	1
SI_	21	96	1	96	48	5
TAP	21	144	7
TAP	21	168	7
STR	21	192	1
SCR	21	192	1	96	48	4
TAP	21	240	7
TAP	21	264	7
TAP	21	288	1
STR	22	0	6
SI_	22	0	6	96	48	1
TAP	22	48	0
TAP	22	72	0
STR	22	96	6
SI_	22	96	6	96	48	2
TAP	22	144	0
TAP	22	168	0
STR	22	192	6
SCL	22	192	6	96	48	3
TAP	22	240	0
TAP	22	264	0
TAP	22	288	6
TAP	22	336	0
TAP	23	0	1
TAP	23	72	2
TAP	23	72	4
TAP	23	144	6
TAP	23	216	3
TAP	23	216	5
TAP	23	288	1
TAP	23	288	4
TAP	23	360	3
TAP	23	360	6
TAP	24	0	3
TAP	24	0	6
STR	24	72	5
SI_	24	72	5	96	48	1
TAP	24	144	2
STR	24	192	3
SI_	24	192	3	96	96	7
STR	24	288	7
SCR	24	288	7	96	96	2
TAP	25	96	3
TAP	25	288	4
TAP	26	0	5
TAP	26	48	5
TAP	26	96	4
TAP	26	120	4
TAP	26	144	4
TAP	26	168	4
STR	26	288	0
SCL	26	288	0	96	96	5
TAP	26	288	1
TAP	27	96	4
TAP	27	288	3
TAP	28	0	2
TAP	28	48	2
TAP	28	96	3
TAP	28	120	3
TAP	28	144	3
TAP	28	168	3
TAP	28	288	6
TAP	28	288	7
TAP	29	0	5
TAP	29	120	6
TAP	29	144	6
TAP	29	192	7
TAP	29	264	0
TAP	29	312	1
TAP	29	336	1
TAP	30	0	0
HLD	30	48	7	72
TAP	30	120	0
TAP	30	144	1
TAP	30	168	2
TAP	30	192	3
TAP	30	216	4
TAP	30	264	5
TAP	30	288	4
TAP	30	336	3
TAP	30	336	6
BRK	31	0	7
BRK	31	24	7
BRK	31	48	7
BRK	31	72	7
TAP	31	96	2
TAP	31	120	3
TAP	31	168	1
TAP	31	168	4
TAP	31	216	6
TAP	31	240	7
TAP	31	288	0
TAP	31	288	5
TAP	31	336	2
TAP	31	336	7
HLD	32	0	1	96
TAP	32	48	0
STR	32	96	7
SI_	32	96	7	96	48	3
TAP	32	120	6
TAP	32	144	5
STR	32	192	4
SI_	32	192	4	96	48	0
TAP	32	216	5
TAP	32	240	6
TAP	32	288	7
TAP	32	312	6
TAP	32	336	5
TAP	33	0	1
TAP	33	48	1
TAP	33	48	3
TAP	33	96	5
TAP	33	120	4
TAP	33	168	3
TAP	33	168	6
TAP	33	216	1
TAP	33	240	0
TAP	33	288	2
TAP	33	288	7
HLD	33	336	0	96
TAP	33	336	5
TAP	34	0	4
HLD	34	48	7	96
TAP	34	96	3
TAP	34	144	0
STR	34	192	5
SI_	34	192	5	96	48	0
STR	34	240	0
SI_	34	240	0	96	48	3
TAP	34	336	2
TAP	35	0	1
TAP	35	48	1
TAP	35	48	4
TAP	35	96	5
TAP	35	120	4
TAP	35	168	3
TAP	35	168	6
TAP	35	216	1
TAP	35	240	0
TAP	35	288	2
TAP	35	288	7
TAP	35	336	0
TAP	35	336	5
HLD	36	0	6	96
TAP	36	48	7
STR	36	96	0
SI_	36	96	0	96	48	4
TAP	36	120	1
TAP	36	144	2
STR	36	192	3
SI_	36	192	3	96	48	7
TAP	36	216	2
TAP	36	240	1
TAP	36	288	0
TAP	36	312	1
TAP	36	336	2
TAP	37	0	6
TAP	37	48	4
TAP	37	48	6
TAP	37	96	2
TAP	37	120	3
TAP	37	168	5
TAP	37	192	4
TAP	37	240	7
TAP	37	264	0
TAP	37	288	1
TAP	37	336	0
TAP	37	360	7
TAP	38	0	6
TAP	38	24	5
TAP	38	72	0
TAP	38	96	1
TAP	38	120	2
TAP	38	168	5
BRK	38	192	3
BRK	38	192	6
BRK	38	216	3
BRK	38	216	6
BRK	38	240	3
BRK	38	240	6
BRK	38	264	3
BRK	38	264	6
BRK	38	288	2
BRK	38	288	7
TAP	39	0	1
TAP	39	0	4
TAP	39	96	6
HLD	39	120	6	96
TAP	39	168	5
TAP	39	216	1
HLD	39	240	1	96
TAP	39	288	2
TAP	39	336	4
STR	40	0	6
SCR	40	0	6	96	48	1
TAP	40	48	2
STR	40	96	6
SCL	40	96	6	96	48	3
TAP	40	120	3
TAP	40	144	3
STR	40	192	7
SCR	40	192	7	96	48	2
TAP	40	216	0
TAP	40	240	0
TAP	40	288	7
TAP	40	312	5
TAP	40	336	5
TAP	41	0	3
TAP	41	0	6
TAP	41	48	7
TAP	41	96	0
HLD	41	120	0	120
TAP	41	168	1
TAP	41	216	2
HLD	41	240	2	120
TAP	41	288	3
STR	41	336	4
SI_	41	336	4	96	48	7
TAP	41	360	4
TAP	42	24	5
TAP	42	72	6
STR	42	96	6
SCR	42	96	6	96	48	1
TAP	42	144	0
STR	42	192	2
SCR	42	192	2	96	48	5
TAP	42	288	7
TAP	42	336	7
TAP	43	0	3
TAP	43	0	6
TAP	43	96	1
HLD	43	120	1	96
TAP	43	168	2
TAP	43	216	6
HLD	43	240	6	96
TAP	43	288	5
TAP	43	336	3
STR	44	0	1
SCL	44	0	1	96	48	6
TAP	44	48	5
STR	44	96	1
SCR	44	96	1	96	48	4
TAP	44	120	4
TAP	44	144	4
STR	44	192	0
SCL	44	192	0	96	48	5
TAP	44	216	7
TAP	44	240	7
TAP	44	288	0
TAP	44	312	2
TAP	44	336	2
TAP	45	0	1
TAP	45	0	4
TAP	45	48	5
TAP	45	96	6
HLD	45	120	6	72
TAP	45	168	4
TAP	45	192	4
TAP	45	240	3
TAP	45	240	7
TAP	45	264	2
TAP	45	264	6
TAP	45	288	1
HLD	45	288	5	96
TAP	45	336	7
TAP	45	360	0
TAP	46	0	1
TAP	46	24	2
TAP	46	72	7
TAP	46	96	6
TAP	46	120	5
TAP	46	168	2
BRK	46	192	1
BRK	46	192	4
BRK	46	216	1
BRK	46	216	4
BRK	46	240	1
BRK	46	240	4
BRK	46	264	1
BRK	46	264	4
BRK	46	288	0
BRK	46	288	5
BRK	47	0	3
BRK	47	0	6
BRK	47	24	3
BRK	47	24	6
BRK	47	48	3
BRK	47	48	6
BRK	47	72	3
BRK	47	72	6
BRK	47	96	2
BRK	47	96	7
TAP	47	288	2
TAP	47	288	3
TAP	48	96	4
TAP	48	96	5
TAP	48	192	2
TAP	48	192	5
TAP	48	240	2
TAP	48	240	5
TAP	48	288	3
TAP	48	288	4
TAP	48	312	3
TAP	48	312	4
TAP	48	336	3
TAP	48	336	4
TAP	48	360	3
TAP	48	360	4
TAP	49	96	5
BRK	49	192	0
BRK	49	192	7
BRK	49	216	1
BRK	49	216	6
BRK	49	240	2
BRK	49	240	5
BRK	49	264	3
BRK	49	264	4
BRK	49	288	0

T_REC_TAP	365
T_REC_BRK	46
T_REC_XTP	0
T_REC_HLD	17
T_REC_XHO	0
T_REC_STR	59
T_REC_BST	0
T_REC_XST	0
T_REC_TTP	0
T_REC_THO	0
T_REC_SLD	59
T_REC_ALL	546
T_NUM_TAP	424
T_NUM_BRK	46
T_NUM_HLD	17
T_NUM_SLD	59
T_NUM_ALL	546
T_JUDGE_TAP	470
T_JUDGE_HLD	37
T_JUDGE_SLD	59
T_JUDGE_ALL	566
TTM_EACHPAIRS	58
TTM_SCR_TAP	212000
TTM_SCR_BRK	119600
TTM_SCR_HLD	17000
TTM_SCR_SLD	88500
TTM_SCR_ALL	437100
TTM_SCR_S	419550
TTM_SCR_SS	432500
TTM_RAT_ACV	10106

