VERSION	0.00.00	1.03.00
FES_MODE	0
BPM_DEF	135.000	135.000	135.000	135.000
MET_DEF	4	4
RESOLUTION	384
CLK_DEF	384
COMPATIBLE_CODE	MA2

BPM	0	0	135.000
MET	0	0	4	4

STR	1	0	4
SCL	1	0	4	96	48	1
TAP	1	48	5
STR	1	144	0
SI_	1	144	0	96	48	4
TAP	1	168	0
BRK	1	288	1
STR	2	0	7
SCR	2	0	7	96	48	2
TAP	2	48	6
TAP	2	144	3
TAP	2	168	3
STR	3	0	3
SCR	3	0	3	96	48	6
TAP	3	48	2
STR	3	144	7
SI_	3	144	7	96	48	3
TAP	3	168	7
BRK	3	288	6
STR	4	0	0
SCL	4	0	0	96	48	5
TAP	4	48	1
TAP	4	144	4
TAP	4	168	4
TAP	4	240	3
TAP	4	264	4
TAP	4	288	5
TAP	4	312	6
TAP	4	336	7
TAP	4	360	0
STR	5	0	7
SCR	5	0	7	96	48	2
TAP	5	48	6
STR	5	144	3
SI_	5	144	3	96	48	7
TAP	5	168	3
BRK	5	288	6
STR	6	0	0
SCL	6	0	0	96	48	5
TAP	6	48	1
TAP	6	144	4
TAP	6	168	4
TAP	6	240	2
TAP	6	264	2
STR	6	288	1
SI_	6	288	1	96	48	5
TAP	6	336	1
STR	7	0	6
SI_	7	0	6	96	48	2
TAP	7	24	6
TAP	7	72	0
TAP	7	96	0
TAP	7	144	7
TAP	7	168	7
STR	7	288	0
SI_	7	288	0	96	48	5
STR	8	0	7
SI_	8	0	7	96	48	2
STR	8	96	1
SI_	8	96	1	96	48	4
STR	8	192	6
SI_	8	192	6	96	48	3
BRK	9	0	0
TAP	9	96	7
TAP	9	120	6
TAP	9	168	7
TAP	9	216	0
TAP	9	240	1
STR	9	288	2
SI_	9	288	2	96	47	7
STR	10	48	6
SI_	10	48	6	96	48	3
STR	10	144	2
SCL	10	144	2	96	48	7
STR	10	240	6
SCL	10	240	6	96	48	3
BRK	11	0	0
TAP	11	96	0
TAP	11	120	1
TAP	11	168	0
TAP	11	216	7
TAP	11	240	6
STR	11	288	7
SCL	11	288	7	96	48	4
TAP	11	336	0
STR	12	0	7
SI_	12	0	7	96	48	3
STR	12	144	7
SCR	12	144	7	96	48	2
TAP	12	336	3
TAP	12	360	3
TAP	13	96	7
TAP	13	120	6
TAP	13	168	7
TAP	13	216	0
TAP	13	240	1
STR	13	288	2
SI_	13	288	2	96	47	7
STR	14	48	6
SI_	14	48	6	96	48	3
STR	14	144	2
SCL	14	144	2	96	48	7
STR	14	240	6
SCL	14	240	6	96	48	3
TAP	15	0	2
TAP	15	24	1
TAP	15	72	1
TAP	15	120	0
TAP	15	144	7
TAP	15	168	6
TAP	15	216	6
TAP	15	264	7
TAP	15	288	0
TAP	15	312	1
TAP	15	360	7
TAP	16	0	6
TAP	16	48	7
TAP	16	96	0
TAP	16	144	1
TAP	16	192	0
TAP	16	216	7
TAP	16	240	6
TAP	16	264	5
TAP	16	288	6
TAP	16	300	7
TAP	16	312	0
TAP	16	324	1
TAP	16	336	2
TAP	16	348	3
TAP	16	360	4
TAP	16	372	5
STR	17	0	6
SI_	17	0	6	96	48	3
TAP	17	96	1
STR	17	144	1
SI_	17	144	1	96	48	4
TAP	17	216	7
STR	17	240	7
SI_	17	240	7	96	48	3
STR	18	0	1
SI_	18	0	1	96	48	4
TAP	18	96	6
STR	18	144	6
SI_	18	144	6	96	48	3
TAP	18	216	0
STR	18	240	0
SI_	18	240	0	96	48	4
STR	19	0	6
SI_	19	0	6	96	48	3
TAP	19	96	1
STR	19	144	1
SI_	19	144	1	96	48	4
TAP	19	216	7
STR	19	240	7
SI_	19	240	7	96	48	3
TAP	20	0	2
TAP	20	24	1
TAP	20	72	1
TAP	20	96	0
TAP	20	120	1
TAP	20	168	1
TAP	20	192	2
TAP	20	216	3
TAP	20	240	4
TAP	20	264	5
TAP	20	312	6
STR	21	0	6
SI_	21	0	6	96	48	3
TAP	21	96	1
STR	21	144	1
SI_	21	144	1	96	48	4
TAP	21	216	7
STR	21	240	7
SI_	21	240	7	96	48	3
STR	22	0	1
SI_	22	0	1	96	48	4
TAP	22	96	6
STR	22	144	6
SI_	22	144	6	96	48	3
TAP	22	216	0
STR	22	240	0
SI_	22	240	0	96	48	4
TAP	23	0	7
TAP	23	72	1
TAP	23	72	5
TAP	23	144	0
TAP	23	216	2
TAP	23	216	6
TAP	23	288	3
TAP	23	288	5
TAP	24	0	4
TAP	24	72	1
TAP	24	144	7
TAP	24	192	0
TAP	24	192	7
TAP	24	288	6
STR	24	288	7
SCR	24	288	7	96	96	2
TAP	25	96	3
TAP	25	288	4
TAP	26	96	5
STR	26	288	6
SCL	26	288	6	96	96	3
TAP	26	288	7
TAP	27	96	2
TAP	27	288	1
TAP	28	96	0
TAP	28	288	7
TAP	29	0	5
TAP	29	120	6
TAP	29	144	6
TAP	29	192	7
TAP	29	264	0
TAP	29	312	1
TAP	29	336	1
TAP	30	0	0
TAP	30	48	7
TAP	30	120	0
TAP	30	144	1
TAP	30	168	2
TAP	30	192	3
TAP	30	216	4
STR	30	264	5
SCL	30	264	5	96	96	2
TAP	30	288	4
TAP	30	336	5
TAP	31	96	7
TAP	31	120	6
TAP	31	168	0
TAP	31	216	1
TAP	31	240	2
TAP	31	288	1
TAP	31	336	0
TAP	31	336	7
STR	32	0	6
SCR	32	0	6	96	24	1
STR	32	96	6
SCL	32	96	6	96	24	3
TAP	32	144	2
STR	32	192	7
SCR	32	192	7	96	24	2
TAP	32	240	2
TAP	32	336	3
TAP	33	96	5
TAP	33	120	4
TAP	33	168	5
TAP	33	216	7
TAP	33	240	0
TAP	33	288	1
TAP	33	336	0
TAP	34	0	7
TAP	34	48	0
TAP	34	48	6
TAP	34	96	1
TAP	34	96	7
TAP	34	192	0
TAP	34	264	7
TAP	34	288	7
TAP	34	336	6
TAP	35	96	0
TAP	35	120	1
TAP	35	168	7
TAP	35	216	6
TAP	35	240	5
TAP	35	288	6
TAP	35	336	0
TAP	35	336	7
STR	36	0	1
SCL	36	0	1	96	24	6
STR	36	96	1
SCR	36	96	1	96	24	4
TAP	36	144	5
STR	36	192	0
SCL	36	192	0	96	24	5
TAP	36	240	5
TAP	36	336	4
TAP	37	96	1
TAP	37	120	1
TAP	37	168	7
TAP	37	192	7
TAP	37	240	0
TAP	37	264	1
TAP	37	288	2
TAP	37	336	1
TAP	37	360	1
TAP	38	0	0
TAP	38	24	0
TAP	38	72	7
TAP	38	96	6
TAP	38	120	7
TAP	38	168	0
TAP	38	192	1
TAP	38	216	0
TAP	38	240	7
TAP	38	264	6
HLD	38	288	5	96
BRK	39	0	4
STR	39	96	2
SI_	39	96	2	96	48	7
TAP	39	120	2
TAP	39	168	6
STR	39	192	5
SI_	39	192	5	96	48	0
TAP	39	240	5
TAP	40	0	3
STR	40	0	6
SCR	40	0	6	96	24	1
STR	40	96	6
SCL	40	96	6	96	24	3
TAP	40	144	2
STR	40	192	7
SCR	40	192	7	96	24	2
TAP	40	240	2
TAP	40	336	3
STR	41	96	1
SI_	41	96	1	96	48	5
TAP	41	120	0
TAP	41	168	7
STR	41	192	7
SI_	41	192	7	96	48	3
TAP	41	240	6
STR	41	288	0
SI_	41	288	0	96	48	4
TAP	41	360	6
STR	42	0	6
SI_	42	0	6	96	48	2
STR	42	96	1
SCL	42	96	1	96	48	6
STR	42	192	5
SI_	42	192	5	96	24	0
STR	42	240	1
SCR	42	240	1	96	24	4
STR	43	96	5
SI_	43	96	5	96	48	0
TAP	43	120	5
TAP	43	168	1
STR	43	192	2
SI_	43	192	2	96	48	7
TAP	43	240	2
STR	44	0	1
SCL	44	0	1	96	24	6
TAP	44	0	4
STR	44	96	1
SCR	44	96	1	96	24	4
TAP	44	144	5
STR	44	192	0
SCL	44	192	0	96	24	5
TAP	44	240	5
TAP	44	336	4
STR	45	96	2
SI_	45	96	2	96	24	7
STR	45	144	7
SCL	45	144	7	96	24	4
TAP	45	288	3
TAP	45	336	1
TAP	45	360	1
TAP	46	0	0
TAP	46	24	0
TAP	46	72	7
TAP	46	96	6
TAP	46	120	7
TAP	46	168	0
TAP	46	192	1
TAP	46	216	0
TAP	46	240	7
TAP	46	264	6
HLD	46	288	5	96
TAP	47	0	6
TAP	47	24	7
TAP	47	48	0
TAP	47	72	1
BRK	47	96	2
STR	47	192	0
SI_	47	192	0	96	48	5
HLD	47	192	1	768
STR	48	0	5
SI_	48	0	5	96	48	2
STR	48	192	2
SI_	48	192	2	96	48	6
STR	49	0	7
SI_	49	0	7	96	48	4
BRK	49	192	0
BRK	49	216	7
BRK	49	240	6
BRK	49	264	5
BRK	49	288	4

T_REC_TAP	225
T_REC_BRK	12
T_REC_XTP	0
T_REC_HLD	3
T_REC_XHO	0
T_REC_STR	73
T_REC_BST	0
T_REC_XST	0
T_REC_TTP	0
T_REC_THO	0
T_REC_SLD	73
T_REC_ALL	386
T_NUM_TAP	298
T_NUM_BRK	12
T_NUM_HLD	3
T_NUM_SLD	73
T_NUM_ALL	386
T_JUDGE_TAP	310
T_JUDGE_HLD	20
T_JUDGE_SLD	73
T_JUDGE_ALL	403
TTM_EACHPAIRS	13
TTM_SCR_TAP	149000
TTM_SCR_BRK	31200
TTM_SCR_HLD	3000
TTM_SCR_SLD	109500
TTM_SCR_ALL	292700
TTM_SCR_S	282800
TTM_SCR_SS	291500
TTM_RAT_ACV	10041

