VERSION	0.00.00	1.03.00
FES_MODE	0
BPM_DEF	135.000	135.000	135.000	135.000
MET_DEF	4	4
RESOLUTION	384
CLK_DEF	384
COMPATIBLE_CODE	MA2

BPM	0	0	135.000
MET	0	0	4	4

TAP	1	0	5
TAP	1	96	4
TAP	1	192	7
TAP	1	240	0
TAP	1	288	1
TAP	2	0	2
TAP	2	96	3
TAP	2	192	0
TAP	2	240	7
TAP	2	288	6
TAP	2	336	6
TAP	3	0	5
TAP	3	96	4
TAP	3	192	7
TAP	3	240	0
TAP	3	288	1
TAP	4	0	2
TAP	4	96	3
TAP	4	192	0
TAP	4	240	7
TAP	4	288	1
TAP	4	336	0
TAP	5	0	7
TAP	5	96	6
TAP	5	192	1
TAP	5	240	2
TAP	5	288	3
TAP	6	0	0
TAP	6	96	1
TAP	6	192	6
TAP	6	240	5
TAP	6	288	6
TAP	6	336	5
TAP	7	0	4
TAP	7	48	4
TAP	7	96	5
TAP	7	144	3
TAP	7	192	3
TAP	7	240	2
TAP	7	288	4
TAP	7	336	4
TAP	8	0	5
TAP	8	96	4
TAP	8	192	3
TAP	8	288	2
TAP	9	96	1
TAP	9	96	7
TAP	9	192	0
TAP	9	240	5
HLD	9	288	6	192
TAP	10	96	5
TAP	10	192	3
TAP	10	240	2
TAP	10	288	5
TAP	10	336	4
TAP	11	96	0
TAP	11	96	6
TAP	11	192	7
TAP	11	240	2
HLD	11	288	1	192
TAP	12	0	2
HLD	12	96	6	192
TAP	12	192	5
TAP	12	288	1
TAP	13	96	7
TAP	13	144	1
TAP	13	192	6
TAP	13	240	0
HLD	13	288	2	192
TAP	14	96	0
TAP	14	144	7
TAP	14	192	5
TAP	14	240	7
TAP	14	288	0
TAP	15	0	7
TAP	15	48	6
TAP	15	96	6
TAP	15	144	0
TAP	15	192	1
TAP	15	240	1
TAP	15	288	7
TAP	15	336	6
TAP	16	0	6
TAP	16	48	7
TAP	16	96	0
TAP	16	144	1
TAP	16	192	6
TAP	16	240	7
TAP	16	288	0
TAP	16	336	1
TAP	17	48	0
TAP	17	72	7
TAP	17	144	0
TAP	17	168	7
TAP	17	240	0
TAP	17	264	7
HLD	17	288	6	96
TAP	18	48	7
TAP	18	72	0
TAP	18	144	7
TAP	18	168	0
TAP	18	240	7
TAP	18	264	0
HLD	18	288	1	96
TAP	19	48	0
TAP	19	72	7
TAP	19	144	0
TAP	19	168	7
TAP	19	240	0
TAP	19	264	7
HLD	19	288	6	96
TAP	20	0	5
TAP	20	48	4
TAP	20	96	3
TAP	20	144	2
TAP	20	192	5
TAP	20	240	4
TAP	20	288	3
TAP	20	336	2
TAP	21	48	1
TAP	21	72	2
TAP	21	144	2
TAP	21	168	3
TAP	21	240	3
TAP	21	264	4
HLD	21	288	5	96
TAP	22	48	6
TAP	22	72	5
TAP	22	144	5
TAP	22	168	4
TAP	22	240	4
TAP	22	264	3
HLD	22	288	2	96
HLD	23	0	1	72
TAP	23	72	2
HLD	23	144	6	72
TAP	23	216	5
TAP	23	288	2
TAP	23	336	5
TAP	24	0	6
TAP	24	72	7
TAP	24	144	0
BRK	24	192	3
BRK	24	192	4
BRK	24	288	3
BRK	24	288	4
STR	25	0	3
SI_	25	0	3	96	96	0
STR	25	0	4
SI_	25	0	4	96	96	7
TAP	26	240	7
TAP	26	264	5
TAP	26	288	1
TAP	27	0	3
TAP	27	0	4
STR	27	72	3
SI_	27	72	3	96	96	0
STR	27	72	4
SI_	27	72	4	96	96	7
TAP	28	240	0
TAP	28	264	2
TAP	28	288	6
TAP	29	0	3
TAP	29	0	4
TAP	29	120	3
TAP	29	120	4
TAP	29	192	3
TAP	29	192	4
STR	29	264	3
SI_	29	264	3	96	96	0
STR	29	264	4
SI_	29	264	4	96	96	7
TAP	30	168	3
TAP	30	168	4
TAP	30	216	3
TAP	30	240	4
TAP	30	288	3
TAP	30	288	4
TAP	30	336	3
TAP	30	336	4
BRK	31	96	3
BRK	31	96	4
TAP	31	144	2
TAP	31	192	3
TAP	31	240	5
TAP	31	288	4
TAP	31	336	5
TAP	32	0	3
TAP	32	0	4
TAP	32	48	4
HLD	32	96	5	96
HLD	32	192	6	96
HLD	32	288	7	96
TAP	33	0	5
TAP	33	48	4
TAP	33	96	2
TAP	33	144	3
TAP	33	192	2
TAP	33	240	5
TAP	33	288	4
TAP	33	336	3
TAP	33	336	4
TAP	34	0	1
TAP	34	48	2
HLD	34	96	0	96
HLD	34	192	1	96
HLD	34	288	2	96
TAP	35	0	3
TAP	35	48	4
TAP	35	96	6
TAP	35	144	5
TAP	35	192	6
TAP	35	240	2
TAP	35	288	3
TAP	35	336	3
TAP	35	336	4
TAP	36	0	3
TAP	36	0	4
TAP	36	48	3
HLD	36	96	2	96
HLD	36	192	1	96
HLD	36	288	0	96
TAP	37	0	3
TAP	37	48	4
TAP	37	96	2
TAP	37	120	2
TAP	37	168	1
TAP	37	192	1
TAP	37	240	0
TAP	37	264	0
TAP	38	0	7
TAP	38	24	7
TAP	38	96	0
TAP	38	120	0
TAP	38	192	7
TAP	38	216	0
TAP	38	240	1
TAP	38	264	2
BRK	38	288	3
BRK	38	288	4
TAP	39	0	3
TAP	39	0	4
TAP	39	48	2
TAP	39	96	0
TAP	39	144	1
TAP	39	192	0
TAP	39	240	7
TAP	39	288	6
TAP	39	336	0
TAP	40	0	7
TAP	40	48	6
HLD	40	96	5	96
HLD	40	192	6	96
HLD	40	288	7	48
TAP	40	336	6
TAP	41	0	3
TAP	41	0	4
TAP	41	48	5
TAP	41	96	7
TAP	41	144	6
TAP	41	192	7
TAP	41	240	0
TAP	41	288	1
TAP	41	336	7
TAP	42	0	0
TAP	42	48	1
HLD	42	96	0	96
HLD	42	192	1	96
HLD	42	288	2	48
TAP	42	336	3
TAP	43	0	3
TAP	43	0	4
TAP	43	96	4
TAP	43	144	5
TAP	43	192	2
TAP	43	240	3
TAP	43	288	4
TAP	43	336	4
TAP	43	360	4
TAP	44	96	3
TAP	44	144	2
TAP	44	192	5
TAP	44	240	4
TAP	44	288	3
TAP	44	336	3
TAP	44	360	3
TAP	45	48	4
TAP	45	96	5
TAP	45	120	5
TAP	45	168	6
TAP	45	192	6
TAP	45	240	7
TAP	45	264	7
TAP	46	0	0
TAP	46	24	0
TAP	46	96	7
TAP	46	120	7
TAP	46	192	0
TAP	46	216	7
TAP	46	240	6
TAP	46	264	5
BRK	46	288	3
BRK	46	288	4
TAP	47	0	7
TAP	47	24	0
TAP	47	48	1
TAP	47	72	2
BRK	47	96	3
BRK	47	96	4
STR	47	192	3
SI_	47	192	3	96	480	0
STR	47	192	4
SI_	47	192	4	96	480	7
TAP	49	216	5
TAP	49	240	2
TAP	49	264	2
BRK	49	288	3
BRK	49	288	4

T_REC_TAP	262
T_REC_BRK	14
T_REC_XTP	0
T_REC_HLD	26
T_REC_XHO	0
T_REC_STR	8
T_REC_BST	0
T_REC_XST	0
T_REC_TTP	0
T_REC_THO	0
T_REC_SLD	8
T_REC_ALL	318
T_NUM_TAP	270
T_NUM_BRK	14
T_NUM_HLD	26
T_NUM_SLD	8
T_NUM_ALL	318
T_JUDGE_TAP	284
T_JUDGE_HLD	58
T_JUDGE_SLD	8
T_JUDGE_ALL	350
TTM_EACHPAIRS	27
TTM_SCR_TAP	135000
TTM_SCR_BRK	36400
TTM_SCR_HLD	26000
TTM_SCR_SLD	12000
TTM_SCR_ALL	209400
TTM_SCR_S	201800
TTM_SCR_SS	208000
TTM_RAT_ACV	10067

