VERSION	0.00.00	1.03.00
FES_MODE	0
BPM_DEF	135.000	135.000	135.000	135.000
MET_DEF	4	4
RESOLUTION	384
CLK_DEF	384
COMPATIBLE_CODE	MA2

BPM	0	0	135.000
MET	0	0	4	4

TAP	1	288	0
TAP	2	288	1
TAP	3	288	0
TAP	4	288	7
TAP	5	96	7
TAP	5	288	6
TAP	6	96	5
TAP	6	288	6
TAP	7	96	0
TAP	7	96	7
TAP	7	288	1
TAP	7	288	6
TAP	8	0	0
TAP	8	96	1
TAP	8	192	2
TAP	8	288	3
STR	9	0	4
SI_	9	0	4	96	192	1
HLD	10	0	7	288
STR	11	0	6
SI_	11	0	6	96	192	3
TAP	12	0	0
TAP	12	96	1
TAP	12	144	1
TAP	12	240	0
STR	13	0	7
SI_	13	0	7	96	192	3
HLD	14	0	1	288
TAP	15	0	0
TAP	15	0	7
TAP	15	144	1
TAP	15	144	6
TAP	15	288	2
TAP	15	288	5
TAP	16	0	4
TAP	16	96	5
HLD	16	192	1	96
BRK	16	288	7
TAP	17	0	6
TAP	17	96	0
TAP	17	144	0
TAP	17	240	1
TAP	17	288	1
TAP	18	0	1
TAP	18	96	7
TAP	18	144	7
TAP	18	240	6
TAP	18	288	6
TAP	19	0	6
TAP	19	96	0
TAP	19	144	0
TAP	19	240	1
TAP	19	288	1
TAP	20	0	7
TAP	20	96	6
TAP	20	192	0
TAP	20	240	0
BRK	20	288	0
TAP	21	0	6
TAP	21	96	0
TAP	21	144	0
TAP	21	240	1
TAP	21	288	1
TAP	22	0	1
TAP	22	96	7
TAP	22	144	7
TAP	22	240	6
TAP	22	288	6
HLD	23	0	4	288
HLD	23	0	5	288
TAP	24	0	3
TAP	24	72	2
TAP	24	144	1
STR	24	192	0
SI_	24	192	0	96	96	4
HLD	25	0	7	288
TAP	26	96	7
TAP	26	288	6
HLD	27	0	6	288
TAP	28	96	6
STR	28	288	5
SI_	28	288	5	96	192	0
STR	29	288	1
SI_	29	288	1	96	192	4
TAP	31	96	4
TAP	31	192	5
STR	31	288	5
SI_	31	288	5	96	48	0
TAP	32	96	7
TAP	32	192	6
TAP	32	288	7
TAP	32	336	7
TAP	33	96	7
TAP	33	192	0
TAP	33	288	1
TAP	34	0	7
TAP	34	48	6
TAP	34	96	5
HLD	34	192	6	144
TAP	34	288	7
BRK	34	336	0
TAP	35	96	3
TAP	35	192	2
STR	35	288	2
SI_	35	288	2	96	48	7
TAP	36	96	0
TAP	36	192	1
TAP	36	288	0
TAP	36	336	0
TAP	37	96	0
TAP	37	192	7
STR	37	288	6
SCR	37	288	6	96	96	1
TAP	38	192	2
TAP	38	192	5
TAP	38	288	0
TAP	38	288	7
TAP	39	0	6
TAP	39	96	6
TAP	39	96	7
TAP	39	192	6
TAP	39	288	6
TAP	39	288	7
TAP	40	0	0
TAP	40	96	0
TAP	40	96	1
HLD	40	192	1	96
TAP	40	192	7
TAP	40	288	6
TAP	40	336	6
TAP	41	96	0
TAP	41	96	1
TAP	41	192	1
TAP	41	288	0
TAP	41	288	1
TAP	42	0	1
HLD	42	96	7	96
HLD	42	192	6	96
TAP	42	288	5
TAP	42	336	5
TAP	43	96	0
TAP	43	96	1
TAP	43	192	1
TAP	43	288	0
TAP	43	288	1
TAP	44	0	7
TAP	44	96	6
TAP	44	96	7
TAP	44	192	0
HLD	44	192	6	96
TAP	44	288	1
TAP	44	336	1
TAP	45	96	6
TAP	45	96	7
TAP	45	192	6
STR	45	288	0
SI_	45	288	0	96	96	3
TAP	46	192	7
BRK	46	288	6
BRK	46	288	7
TAP	47	0	0
BRK	47	96	0
BRK	47	96	1
STR	47	192	2
SI_	47	192	2	96	192	7
STR	48	192	5
SI_	48	192	5	96	192	0
TAP	49	192	7
BRK	49	288	0
BRK	49	288	7

T_REC_TAP	125
T_REC_BRK	9
T_REC_XTP	0
T_REC_HLD	12
T_REC_XHO	0
T_REC_STR	12
T_REC_BST	0
T_REC_XST	0
T_REC_TTP	0
T_REC_THO	0
T_REC_SLD	12
T_REC_ALL	170
T_NUM_TAP	137
T_NUM_BRK	9
T_NUM_HLD	12
T_NUM_SLD	12
T_NUM_ALL	170
T_JUDGE_TAP	146
T_JUDGE_HLD	49
T_JUDGE_SLD	12
T_JUDGE_ALL	207
TTM_EACHPAIRS	22
TTM_SCR_TAP	68500
TTM_SCR_BRK	23400
TTM_SCR_HLD	12000
TTM_SCR_SLD	18000
TTM_SCR_ALL	121900
TTM_SCR_S	117400
TTM_SCR_SS	121000
TTM_RAT_ACV	10074

