VERSION	0.00.00	1.03.00
FES_MODE	0
BPM_DEF	135.000	135.000	135.000	135.000
MET_DEF	4	4
RESOLUTION	384
CLK_DEF	384
COMPATIBLE_CODE	MA2

BPM	0	0	135.000
MET	0	0	4	4

TAP	1	96	0
TAP	1	288	0
TAP	2	96	1
TAP	2	288	1
TAP	3	96	0
TAP	3	288	0
TAP	4	96	7
TAP	4	288	7
TAP	5	96	6
TAP	5	288	6
TAP	6	96	5
TAP	6	288	5
TAP	7	96	6
TAP	7	288	6
TAP	8	96	7
BRK	8	288	7
HLD	9	96	1	192
TAP	10	96	1
TAP	10	288	0
HLD	11	96	7	192
TAP	12	96	7
TAP	12	288	6
HLD	13	96	5	192
TAP	14	96	5
TAP	14	288	4
TAP	15	96	3
TAP	15	96	4
TAP	15	288	2
TAP	15	288	5
TAP	16	96	1
TAP	16	96	6
BRK	16	288	0
TAP	17	96	7
TAP	17	192	7
TAP	17	288	7
TAP	18	96	6
TAP	18	192	6
TAP	18	288	6
TAP	19	96	5
TAP	19	192	5
TAP	19	288	5
TAP	20	96	6
TAP	20	288	0
TAP	20	288	7
TAP	21	96	0
TAP	21	192	0
TAP	21	288	0
TAP	22	96	1
TAP	22	192	1
TAP	22	288	1
TAP	23	96	2
TAP	23	288	3
TAP	24	96	2
TAP	24	192	1
BRK	24	288	0
HLD	25	96	6	191
STR	26	0	5
SI_	26	0	5	96	192	2
HLD	27	96	1	192
STR	28	0	0
SI_	28	0	0	96	192	3
TAP	29	96	4
TAP	29	288	5
TAP	30	96	6
TAP	30	288	7
TAP	31	96	0
TAP	31	192	0
TAP	31	288	0
TAP	32	96	1
TAP	32	192	1
TAP	32	288	1
TAP	33	96	0
TAP	33	192	0
TAP	33	288	0
TAP	34	96	7
TAP	34	288	0
TAP	34	288	7
TAP	35	96	7
TAP	35	192	7
TAP	35	288	7
TAP	36	96	6
TAP	36	192	6
TAP	36	288	6
TAP	37	96	0
TAP	37	192	0
TAP	37	288	0
TAP	38	0	1
TAP	38	288	0
TAP	38	288	7
TAP	39	96	1
TAP	39	192	1
TAP	39	288	1
TAP	40	96	7
TAP	40	192	7
TAP	40	288	7
TAP	41	96	0
TAP	41	192	0
TAP	41	288	0
TAP	42	96	7
TAP	42	288	6
TAP	42	336	6
TAP	43	96	5
TAP	43	192	5
TAP	43	288	5
TAP	44	96	3
TAP	44	192	3
TAP	44	288	3
TAP	45	96	1
TAP	45	192	1
TAP	45	288	1
TAP	46	0	0
TAP	46	288	0
TAP	46	288	7
TAP	47	96	1
TAP	47	96	6
STR	48	192	4
SI_	48	192	4	96	96	0
TAP	49	192	7
BRK	49	288	7

T_REC_TAP	104
T_REC_BRK	4
T_REC_XTP	0
T_REC_HLD	5
T_REC_XHO	0
T_REC_STR	3
T_REC_BST	0
T_REC_XST	0
T_REC_TTP	0
T_REC_THO	0
T_REC_SLD	3
T_REC_ALL	119
T_NUM_TAP	107
T_NUM_BRK	4
T_NUM_HLD	5
T_NUM_SLD	3
T_NUM_ALL	119
T_JUDGE_TAP	111
T_JUDGE_HLD	20
T_JUDGE_SLD	3
T_JUDGE_ALL	134
TTM_EACHPAIRS	8
TTM_SCR_TAP	53500
TTM_SCR_BRK	10400
TTM_SCR_HLD	5000
TTM_SCR_SLD	4500
TTM_SCR_ALL	73400
TTM_SCR_S	70850
TTM_SCR_SS	73000
TTM_RAT_ACV	10054

