VERSION	0.00.00	1.03.00
FES_MODE	0
BPM_DEF	106.000	210.000	210.000	106.000
MET_DEF	4	4
RESOLUTION	384
CLK_DEF	384
COMPATIBLE_CODE	MA2

BPM	0	0	106.000
BPM	15	0	210.000
MET	0	0	4	4

STR	3	0	0
SI_	3	0	0	48	48	3
STR	3	96	1
SI_	3	96	1	48	48	4
STR	3	192	2
SI_	3	192	2	48	48	5
STR	3	288	7
SI_	3	288	7	48	48	4
STR	4	0	6
SI_	4	0	6	48	48	3
STR	4	96	5
SI_	4	96	5	48	48	2
STR	4	192	7
SI_	4	192	7	48	48	4
STR	4	288	0
SI_	4	288	0	48	48	3
STR	5	0	1
SI_	5	0	1	48	48	4
STR	5	96	0
SI_	5	96	0	48	48	3
STR	5	192	7
SI_	5	192	7	48	48	4
STR	5	288	6
SI_	5	288	6	48	48	3
STR	6	0	4
SI_	6	0	4	48	48	7
STR	6	96	0
SI_	6	96	0	48	48	5
STR	6	192	6
SI_	6	192	6	48	48	1
STR	6	288	3
SI_	6	288	3	48	48	0
STR	7	0	7
SI_	7	0	7	48	48	2
STR	7	96	1
SI_	7	96	1	48	48	6
STR	7	192	5
SI_	7	192	5	48	48	2
STR	7	288	3
SI_	7	288	3	48	48	6
STR	8	0	4
SI_	8	0	4	48	48	1
STR	8	96	2
SI_	8	96	2	48	48	5
STR	8	192	4
SI_	8	192	4	48	48	1
STR	8	288	3
SI_	8	288	3	48	48	6
STR	9	0	5
SI_	9	0	5	48	48	1
STR	9	96	6
SI_	9	96	6	48	48	2
STR	9	192	7
SI_	9	192	7	48	48	3
STR	9	288	0
SI_	9	288	0	48	48	4
STR	10	0	1
SI_	10	0	1	48	48	5
STR	10	96	2
SI_	10	96	2	48	48	6
HLD	11	0	5	96
HLD	11	96	7	96
HLD	11	192	1	96
HLD	11	288	3	96
HLD	12	0	2	96
HLD	12	96	0	96
HLD	12	192	6	96
HLD	12	288	4	96
HLD	13	0	5	96
HLD	13	96	1	96
HLD	13	192	0	96
HLD	13	288	7	96
HLD	14	0	6	192
STR	15	0	3
SI_	15	0	3	96	1248	7
TAP	19	0	1
TAP	19	0	3
TAP	19	96	4
TAP	19	144	2
TAP	19	240	5
TAP	19	288	4
TAP	19	336	5
TAP	20	0	4
TAP	20	0	6
TAP	20	96	3
TAP	20	144	5
TAP	20	240	2
TAP	20	288	3
TAP	20	336	2
TAP	21	0	1
TAP	21	0	3
TAP	21	96	4
TAP	21	144	2
TAP	21	240	2
TAP	21	288	3
TAP	21	336	4
TAP	22	0	5
TAP	22	48	5
TAP	22	96	2
TAP	22	144	2
BRK	22	240	4
BRK	22	240	7
TAP	23	0	3
TAP	23	96	3
TAP	23	192	3
TAP	23	288	3
TAP	24	0	3
TAP	24	96	3
TAP	24	192	3
TAP	24	288	0
TAP	24	288	3
TAP	25	0	4
TAP	25	96	4
TAP	25	192	4
TAP	25	288	4
TAP	26	0	4
TAP	26	96	4
TAP	26	192	4
TAP	26	288	4
TAP	26	288	7
TAP	27	0	2
TAP	27	96	2
TAP	27	192	2
TAP	27	288	2
TAP	28	0	2
TAP	28	96	2
TAP	28	192	2
TAP	28	288	2
TAP	28	288	6
TAP	29	0	5
TAP	29	96	5
TAP	29	192	5
TAP	29	288	5
TAP	30	0	5
TAP	30	96	5
TAP	30	192	0
TAP	30	240	0
TAP	30	288	0
TAP	30	336	0
TAP	31	0	1
TAP	31	96	0
TAP	31	144	7
TAP	31	192	6
TAP	31	288	5
TAP	31	336	6
TAP	32	0	7
TAP	32	96	1
TAP	32	144	0
TAP	32	192	7
TAP	32	288	6
TAP	32	288	7
TAP	33	0	6
TAP	33	96	7
TAP	33	144	0
TAP	33	192	1
TAP	33	288	2
TAP	33	336	1
TAP	34	0	0
TAP	34	96	6
TAP	34	144	7
TAP	34	192	0
TAP	34	288	0
TAP	34	288	1
TAP	35	0	1
TAP	35	96	1
TAP	35	144	0
TAP	35	192	7
TAP	35	288	6
TAP	35	336	7
TAP	36	0	0
TAP	36	96	1
TAP	36	144	0
TAP	36	192	7
TAP	36	288	0
TAP	36	288	7
TAP	37	0	6
TAP	37	48	6
TAP	37	96	2
TAP	37	144	2
TAP	37	192	5
TAP	37	240	6
TAP	37	288	7
STR	37	336	0
SI_	37	336	0	96	144	4
TAP	39	0	4
TAP	39	0	7
TAP	39	96	1
TAP	39	96	2
TAP	39	192	0
TAP	39	192	3
TAP	39	288	5
TAP	39	288	6
TAP	40	0	4
TAP	40	0	7
TAP	40	96	1
TAP	40	96	2
TAP	40	192	1
TAP	40	192	6
TAP	40	288	3
TAP	40	288	4
TAP	41	0	0
TAP	41	0	3
TAP	41	96	5
TAP	41	96	6
TAP	41	192	4
TAP	41	192	7
TAP	41	288	1
TAP	41	288	2
TAP	42	0	0
TAP	42	0	3
TAP	42	96	5
TAP	42	96	6
TAP	42	192	1
TAP	42	192	6
TAP	42	288	3
TAP	42	288	4
TAP	43	0	6
TAP	43	0	7
TAP	43	96	1
TAP	43	96	2
TAP	43	192	0
TAP	43	192	1
TAP	43	288	5
TAP	43	288	6
TAP	44	0	6
TAP	44	0	7
TAP	44	96	2
TAP	44	96	3
TAP	44	192	0
TAP	44	192	1
TAP	44	288	4
TAP	44	288	5
STR	45	0	6
SCR	45	0	6	96	96	1
STR	45	144	2
SCR	45	144	2	96	96	5
STR	46	0	0
SCR	46	0	0	96	96	3
STR	46	144	4
SCR	46	144	4	96	96	7
TAP	47	96	3
TAP	47	192	4
TAP	47	192	5
TAP	47	288	2
TAP	47	288	3
TAP	48	0	5
TAP	48	0	6
TAP	48	96	1
TAP	48	96	2
TAP	48	192	6
TAP	48	192	7
TAP	48	288	3
TAP	48	288	4
TAP	49	96	4
TAP	49	192	2
TAP	49	192	3
TAP	49	288	4
TAP	49	288	5
TAP	50	0	1
TAP	50	0	2
TAP	50	96	5
TAP	50	96	6
TAP	50	192	0
TAP	50	192	1
TAP	50	288	3
TAP	50	288	4
HLD	51	0	0	288
TAP	51	144	2
HLD	51	192	2	288
TAP	51	336	7
HLD	52	0	7	288
TAP	52	144	5
HLD	52	192	5	288
TAP	52	336	1
HLD	53	0	1	384
TAP	54	0	7
TAP	54	48	7
STR	54	144	3
SI_	54	144	3	96	24	0
STR	54	144	7
SI_	54	144	7	96	24	4
HLD	55	0	7	768
STR	55	96	1
SI_	55	96	1	96	48	4
STR	55	288	6
SI_	55	288	6	96	48	3
STR	56	96	2
SCR	56	96	2	96	96	5
HLD	57	0	0	768
STR	57	96	6
SI_	57	96	6	96	48	3
STR	57	288	1
SI_	57	288	1	96	48	4
STR	58	96	5
SCL	58	96	5	96	96	2
HLD	59	0	7	384
STR	59	96	6
SI_	59	96	6	96	96	1
HLD	60	0	0	384
STR	60	96	1
SI_	60	96	1	96	96	6
STR	61	0	5
SCR	61	0	5	96	96	0
HLD	61	192	5	96
STR	62	0	2
SCL	62	0	2	96	96	7
HLD	62	192	2	96
HLD	63	0	5	672
STR	63	0	6
SI_	63	0	6	96	48	1
STR	63	192	2
SI_	63	192	2	96	48	6
STR	64	0	7
SI_	64	0	7	96	48	3
STR	64	192	4
SI_	64	192	4	96	48	0
STR	65	0	1
SI_	65	0	1	96	48	6
HLD	65	0	2	672
STR	65	192	5
SI_	65	192	5	96	48	1
STR	66	0	0
SI_	66	0	0	96	48	4
STR	66	192	3
SI_	66	192	3	96	48	7
STR	67	0	5
SI_	67	0	5	96	48	0
HLD	67	0	6	288
STR	67	192	7
SI_	67	192	7	96	48	3
HLD	68	0	1	288
STR	68	0	2
SI_	68	0	2	96	48	7
STR	68	192	0
SI_	68	192	0	96	48	4
STR	69	0	2
SCL	69	0	2	96	288	7
STR	69	0	6
SCL	69	0	6	96	288	3
TAP	70	96	2
TAP	70	96	6
TAP	70	240	0
TAP	70	240	4
TAP	71	0	2
STR	71	0	6
SI_	71	0	6	96	1248	2
TAP	71	96	5
TAP	71	192	4
TAP	71	288	3
TAP	72	0	6
TAP	72	96	7
TAP	72	192	0
TAP	72	288	1
TAP	73	0	0
TAP	73	96	4
TAP	73	192	7
TAP	73	288	3
TAP	74	0	5
STR	74	96	1
SI_	74	96	1	96	24	5
TAP	75	0	3
TAP	75	48	2
TAP	75	96	3
TAP	75	144	3
TAP	75	192	4
TAP	75	240	5
TAP	75	288	4
TAP	75	336	4
TAP	76	0	3
TAP	76	48	3
TAP	76	96	2
TAP	76	144	3
TAP	76	192	3
TAP	76	240	4
TAP	76	288	4
TAP	76	336	3
TAP	77	0	4
TAP	77	48	5
TAP	77	96	4
TAP	77	144	4
TAP	77	192	3
TAP	77	240	2
TAP	77	288	3
TAP	77	336	3
TAP	78	0	4
TAP	78	48	4
TAP	78	96	4
STR	78	144	0
SI_	78	144	0	96	24	5
STR	78	144	1
SI_	78	144	1	96	24	4

T_REC_TAP	229
T_REC_BRK	2
T_REC_XTP	0
T_REC_HLD	28
T_REC_XHO	0
T_REC_STR	66
T_REC_BST	0
T_REC_XST	0
T_REC_TTP	0
T_REC_THO	0
T_REC_SLD	66
T_REC_ALL	391
T_NUM_TAP	295
T_NUM_BRK	2
T_NUM_HLD	28
T_NUM_SLD	66
T_NUM_ALL	391
T_JUDGE_TAP	297
T_JUDGE_HLD	180
T_JUDGE_SLD	66
T_JUDGE_ALL	543
TTM_EACHPAIRS	56
TTM_SCR_TAP	147500
TTM_SCR_BRK	5200
TTM_SCR_HLD	28000
TTM_SCR_SLD	99000
TTM_SCR_ALL	279700
TTM_SCR_S	271150
TTM_SCR_SS	279500
TTM_RAT_ACV	10007

