VERSION	0.00.00	1.03.00
FES_MODE	0
BPM_DEF	106.000	210.000	210.000	106.000
MET_DEF	4	4
RESOLUTION	384
CLK_DEF	384
COMPATIBLE_CODE	MA2

BPM	0	0	106.000
BPM	15	0	210.000
MET	0	0	4	4

STR	3	0	7
SI_	3	0	7	48	240	4
HLD	4	240	3	576
HLD	6	48	5	624
HLD	7	288	1	480
STR	9	96	7
SCR	9	96	7	48	240	2
STR	10	0	3
SI_	10	0	3	48	240	7
HLD	11	0	6	192
HLD	11	288	4	192
HLD	12	192	2	96
HLD	12	288	1	192
HLD	13	192	7	96
HLD	13	288	6	96
HLD	14	0	5	288
STR	15	0	4
SI_	15	0	4	96	672	0
TAP	19	0	7
TAP	19	48	7
HLD	19	144	6	144
TAP	20	0	1
TAP	20	48	1
HLD	20	144	2	144
TAP	21	0	0
TAP	21	48	0
HLD	21	144	7	144
TAP	22	0	0
TAP	22	48	1
TAP	22	96	0
TAP	22	144	7
BRK	22	240	7
TAP	23	0	0
TAP	23	96	1
TAP	23	192	2
TAP	23	288	1
TAP	23	336	1
TAP	24	48	0
TAP	24	144	7
TAP	24	192	7
TAP	25	0	6
TAP	25	96	5
TAP	25	192	4
TAP	25	288	5
TAP	25	336	5
TAP	26	48	6
TAP	26	144	7
TAP	26	192	7
TAP	27	0	0
TAP	27	96	1
TAP	27	192	2
TAP	27	288	1
TAP	27	336	1
TAP	28	48	0
TAP	28	144	7
TAP	28	192	7
TAP	29	0	6
TAP	29	96	5
TAP	29	192	4
TAP	29	288	1
TAP	29	336	1
HLD	30	48	2	96
HLD	30	144	4	96
HLD	30	240	6	96
TAP	31	0	6
TAP	31	48	7
TAP	31	96	6
TAP	31	192	6
TAP	31	288	5
TAP	31	336	5
TAP	32	48	3
TAP	32	144	2
TAP	32	192	2
TAP	33	0	1
TAP	33	48	0
TAP	33	96	1
TAP	33	192	1
TAP	33	288	2
TAP	33	336	2
TAP	34	48	4
TAP	34	144	5
TAP	34	192	5
TAP	35	0	3
TAP	35	48	2
TAP	35	96	1
TAP	35	192	1
TAP	35	288	7
TAP	35	336	7
TAP	36	48	6
TAP	36	144	5
TAP	36	192	5
TAP	37	0	7
TAP	37	96	0
TAP	37	192	1
TAP	37	288	2
STR	37	336	1
SCR	37	336	1	96	144	4
TAP	39	0	0
TAP	39	0	5
TAP	39	96	2
TAP	39	96	7
TAP	39	192	6
TAP	39	192	7
TAP	39	288	5
TAP	39	336	4
TAP	39	336	5
TAP	40	48	0
TAP	40	48	4
TAP	40	144	3
TAP	40	144	7
TAP	41	96	2
TAP	41	96	6
TAP	41	144	4
TAP	41	192	0
TAP	41	288	1
TAP	42	0	0
TAP	42	48	0
HLD	42	144	7	144
HLD	43	0	3	144
TAP	43	0	4
HLD	43	144	2	144
TAP	43	288	1
HLD	44	0	6	144
TAP	44	0	7
HLD	44	144	5	144
TAP	44	288	4
TAP	45	0	5
TAP	45	96	0
BRK	45	144	1
BRK	45	144	7
TAP	46	0	0
TAP	46	96	7
BRK	46	144	0
BRK	46	144	6
TAP	47	0	0
TAP	47	96	0
TAP	47	96	1
TAP	47	192	7
TAP	47	288	6
TAP	47	288	7
TAP	48	0	0
TAP	48	96	0
TAP	48	96	1
TAP	48	192	7
TAP	48	288	6
TAP	48	288	7
TAP	49	0	3
TAP	49	96	2
TAP	49	96	3
TAP	49	192	4
TAP	49	288	4
TAP	49	288	5
TAP	50	0	3
TAP	50	96	2
TAP	50	96	3
TAP	50	192	4
STR	50	288	5
SI_	50	288	5	96	48	1
STR	51	96	2
SI_	51	96	2	96	48	6
STR	51	288	5
SI_	51	288	5	96	48	0
STR	52	96	2
SI_	52	96	2	96	48	7
STR	52	288	5
SCR	52	288	5	96	288	0
TAP	54	0	7
TAP	54	48	7
TAP	54	96	7
BRK	54	144	7
STR	55	0	0
SI_	55	0	0	96	48	4
TAP	55	0	6
TAP	55	192	1
STR	55	192	7
SI_	55	192	7	96	48	3
STR	56	0	4
SI_	56	0	4	96	48	1
TAP	56	0	5
TAP	56	192	2
STR	56	192	3
SI_	56	192	3	96	48	6
STR	57	0	1
SI_	57	0	1	96	48	4
STR	57	192	6
SI_	57	192	6	96	48	3
STR	58	0	0
SI_	58	0	0	96	48	4
STR	58	192	7
SI_	58	192	7	96	48	3
STR	59	0	0
SI_	59	0	0	96	48	4
TAP	59	0	6
TAP	59	192	1
STR	59	192	7
SI_	59	192	7	96	48	3
STR	60	0	4
SI_	60	0	4	96	48	1
TAP	60	0	5
TAP	60	192	2
STR	60	192	3
SI_	60	192	3	96	48	6
STR	61	0	5
SI_	61	0	5	96	48	0
STR	61	192	2
SI_	61	192	2	96	48	7
STR	62	0	4
SI_	62	0	4	96	48	0
STR	62	192	3
SI_	62	192	3	96	48	7
STR	63	0	0
SI_	63	0	0	96	48	4
TAP	63	0	1
TAP	63	192	6
STR	63	192	7
SI_	63	192	7	96	48	3
STR	64	0	1
SI_	64	0	1	96	48	4
TAP	64	0	2
TAP	64	192	5
STR	64	192	6
SI_	64	192	6	96	48	3
STR	65	0	0
SI_	65	0	0	96	48	4
STR	65	192	7
SI_	65	192	7	96	48	3
STR	66	0	1
SI_	66	0	1	96	48	4
STR	66	192	6
SI_	66	192	6	96	48	3
TAP	67	0	4
TAP	67	96	4
TAP	67	96	5
TAP	67	192	3
TAP	67	288	2
TAP	67	288	3
TAP	68	0	4
TAP	68	96	4
TAP	68	96	5
TAP	68	192	6
TAP	68	288	6
TAP	68	288	7
TAP	69	0	0
TAP	69	96	0
TAP	69	96	1
TAP	69	192	2
TAP	69	288	3
TAP	69	288	4
TAP	70	0	5
TAP	70	96	0
TAP	70	96	6
TAP	70	192	1
TAP	70	192	7
BRK	70	288	0
BRK	70	288	2
TAP	71	0	7
TAP	71	48	7
HLD	71	144	6	144
TAP	72	0	1
TAP	72	48	1
HLD	72	144	2	144
TAP	73	0	7
TAP	73	48	7
HLD	73	144	6	144
TAP	74	0	1
TAP	74	48	2
BRK	74	144	0
BRK	74	240	7
TAP	75	0	6
TAP	75	48	6
HLD	75	144	7	144
TAP	76	0	0
TAP	76	48	0
HLD	76	144	1	96
TAP	76	240	0
TAP	76	288	7
TAP	76	336	6
TAP	77	0	7
TAP	77	48	7
HLD	77	144	0	144
TAP	78	0	1
TAP	78	48	0
TAP	78	96	7
TAP	78	144	6
TAP	78	144	7
TAP	78	240	5
TAP	78	240	6

T_REC_TAP	182
T_REC_BRK	10
T_REC_XTP	0
T_REC_HLD	27
T_REC_XHO	0
T_REC_STR	34
T_REC_BST	0
T_REC_XST	0
T_REC_TTP	0
T_REC_THO	0
T_REC_SLD	34
T_REC_ALL	287
T_NUM_TAP	216
T_NUM_BRK	10
T_NUM_HLD	27
T_NUM_SLD	34
T_NUM_ALL	287
T_JUDGE_TAP	226
T_JUDGE_HLD	165
T_JUDGE_SLD	34
T_JUDGE_ALL	425
TTM_EACHPAIRS	41
TTM_SCR_TAP	108000
TTM_SCR_BRK	26000
TTM_SCR_HLD	27000
TTM_SCR_SLD	51000
TTM_SCR_ALL	212000
TTM_SCR_S	204700
TTM_SCR_SS	211000
TTM_RAT_ACV	10047

