VERSION	0.00.00	1.03.00
FES_MODE	0
BPM_DEF	106.000	210.000	210.000	106.000
MET_DEF	4	4
RESOLUTION	384
CLK_DEF	384
COMPATIBLE_CODE	MA2

BPM	0	0	106.000
BPM	15	0	210.000
MET	0	0	4	4

TAP	3	0	0
TAP	3	192	0
TAP	4	0	7
TAP	4	192	7
TAP	5	0	1
TAP	5	192	1
TAP	6	0	6
TAP	6	192	6
TAP	7	0	2
TAP	7	192	2
TAP	8	0	5
TAP	8	192	5
TAP	9	0	3
TAP	9	192	3
TAP	10	0	4
TAP	10	192	4
TAP	11	0	0
TAP	11	96	1
TAP	11	192	2
TAP	11	288	3
TAP	12	0	7
TAP	12	96	6
TAP	12	192	5
TAP	12	288	4
TAP	13	0	0
TAP	13	0	7
TAP	13	96	1
TAP	13	96	6
TAP	13	192	2
TAP	13	192	5
TAP	13	288	3
TAP	13	288	4
HLD	14	0	3	192
HLD	14	0	4	192
TAP	14	288	2
HLD	15	0	1	768
TAP	19	0	1
TAP	19	192	0
TAP	20	0	7
TAP	20	192	6
TAP	21	0	7
TAP	21	192	0
TAP	22	0	1
TAP	22	144	1
BRK	22	240	2
TAP	23	0	2
TAP	23	96	3
TAP	23	192	4
TAP	23	288	5
TAP	24	0	4
TAP	24	96	3
TAP	24	192	2
TAP	24	192	5
TAP	25	0	6
TAP	25	96	7
TAP	25	192	0
TAP	25	288	1
TAP	26	0	0
TAP	26	96	7
TAP	26	192	1
TAP	26	192	6
TAP	27	0	3
TAP	27	96	2
TAP	27	192	1
TAP	27	288	0
TAP	28	0	7
TAP	28	96	0
TAP	28	192	0
TAP	28	192	7
TAP	29	0	7
TAP	29	96	6
TAP	29	192	5
TAP	29	288	4
TAP	30	0	3
TAP	30	96	4
TAP	30	192	3
TAP	30	192	4
TAP	31	0	0
TAP	31	96	7
TAP	31	192	0
TAP	31	288	7
TAP	32	0	1
TAP	32	96	6
TAP	32	192	1
TAP	32	288	6
TAP	33	0	2
TAP	33	96	2
TAP	33	192	3
TAP	33	288	3
TAP	34	0	4
TAP	34	96	4
TAP	34	192	5
TAP	34	288	5
TAP	35	0	0
TAP	35	96	1
TAP	35	192	2
TAP	35	288	1
TAP	36	0	2
TAP	36	96	3
TAP	36	192	2
TAP	36	288	3
TAP	37	0	4
TAP	37	96	3
TAP	37	192	4
TAP	37	288	3
TAP	38	0	4
TAP	38	96	5
HLD	39	0	6	672
TAP	39	96	7
TAP	39	288	0
TAP	40	96	1
TAP	40	288	2
HLD	41	0	3	672
TAP	41	96	4
TAP	41	288	5
TAP	42	96	6
TAP	42	288	7
HLD	43	0	0	144
TAP	43	144	1
HLD	44	0	7	144
TAP	44	144	6
TAP	45	0	1
TAP	45	0	6
TAP	45	144	0
TAP	45	144	7
TAP	46	0	0
TAP	46	0	7
TAP	46	144	1
TAP	46	144	6
TAP	47	0	0
TAP	47	96	1
TAP	47	192	2
TAP	47	288	3
TAP	48	0	4
TAP	48	96	5
TAP	48	192	6
TAP	49	0	7
TAP	49	96	6
TAP	49	192	5
TAP	49	288	4
TAP	50	0	3
TAP	50	96	2
TAP	50	192	1
HLD	51	0	0	192
HLD	51	192	7	192
HLD	52	0	1	192
HLD	52	192	6	192
HLD	53	0	2	192
STR	54	0	3
SI_	54	0	3	96	96	0
TAP	55	0	6
TAP	55	96	6
TAP	55	192	7
TAP	55	288	7
TAP	56	0	0
TAP	56	96	0
TAP	56	192	1
TAP	56	288	1
TAP	57	0	4
TAP	57	96	2
TAP	57	96	3
TAP	57	192	4
TAP	57	288	2
TAP	57	288	3
TAP	58	0	3
TAP	58	96	4
TAP	58	96	5
TAP	58	192	3
TAP	58	288	4
TAP	58	288	5
HLD	59	0	6	192
HLD	59	192	7	192
HLD	60	0	0	192
HLD	60	192	1	192
HLD	61	0	2	192
HLD	61	192	3	192
HLD	62	0	4	192
HLD	62	192	5	192
TAP	63	0	6
TAP	63	96	7
TAP	63	192	6
TAP	63	288	7
TAP	64	0	0
TAP	64	96	1
TAP	64	192	0
TAP	64	288	1
TAP	65	0	5
TAP	65	96	4
TAP	65	96	5
TAP	65	192	5
TAP	65	288	4
TAP	65	288	5
TAP	66	0	2
TAP	66	96	2
TAP	66	96	3
TAP	66	192	2
TAP	66	288	2
TAP	66	288	3
STR	67	0	1
SI_	67	0	1	96	192	6
STR	68	0	5
SI_	68	0	5	96	192	2
STR	69	0	0
SI_	69	0	0	96	192	3
STR	69	0	7
SI_	69	0	7	96	192	4
TAP	70	96	2
TAP	70	96	5
TAP	70	240	1
TAP	70	240	6
TAP	71	0	0
TAP	71	0	7
TAP	71	96	7
TAP	71	192	0
TAP	71	288	7
TAP	72	0	1
TAP	72	96	6
TAP	72	192	1
TAP	72	288	6
TAP	73	0	2
TAP	73	96	5
TAP	73	192	2
TAP	73	288	5
TAP	74	0	3
TAP	74	96	4
TAP	74	192	3
TAP	74	288	4
TAP	75	0	0
TAP	75	96	1
TAP	75	192	7
TAP	75	288	6
TAP	76	0	0
TAP	76	96	7
TAP	76	192	1
TAP	76	288	6
TAP	77	0	2
TAP	77	96	5
TAP	77	192	2
TAP	77	288	5
TAP	78	0	6
TAP	78	96	7
TAP	78	144	0
BRK	78	240	1

T_REC_TAP	211
T_REC_BRK	2
T_REC_XTP	0
T_REC_HLD	20
T_REC_XHO	0
T_REC_STR	5
T_REC_BST	0
T_REC_XST	0
T_REC_TTP	0
T_REC_THO	0
T_REC_SLD	5
T_REC_ALL	243
T_NUM_TAP	216
T_NUM_BRK	2
T_NUM_HLD	20
T_NUM_SLD	5
T_NUM_ALL	243
T_JUDGE_TAP	218
T_JUDGE_HLD	118
T_JUDGE_SLD	5
T_JUDGE_ALL	341
TTM_EACHPAIRS	25
TTM_SCR_TAP	108000
TTM_SCR_BRK	5200
TTM_SCR_HLD	20000
TTM_SCR_SLD	7500
TTM_SCR_ALL	140700
TTM_SCR_S	136300
TTM_SCR_SS	140500
TTM_RAT_ACV	10014

