VERSION	0.00.00	1.03.00
FES_MODE	0
BPM_DEF	106.000	210.000	210.000	106.000
MET_DEF	4	4
RESOLUTION	384
CLK_DEF	384
COMPATIBLE_CODE	MA2

BPM	0	0	106.000
BPM	15	0	210.000
MET	0	0	4	4

TAP	3	0	0
TAP	3	192	0
TAP	4	0	1
TAP	4	192	1
TAP	5	0	2
TAP	5	192	2
TAP	6	0	3
TAP	6	192	3
TAP	7	0	4
TAP	7	192	4
TAP	8	0	5
TAP	8	192	5
TAP	9	0	6
TAP	9	192	6
TAP	10	0	7
TAP	11	0	0
HLD	11	192	1	192
HLD	12	192	0	192
TAP	13	192	7
HLD	14	0	6	288
HLD	15	0	5	768
TAP	19	0	0
TAP	20	0	1
TAP	21	0	0
TAP	22	0	7
TAP	22	144	6
BRK	22	240	6
TAP	23	96	6
TAP	23	288	5
TAP	24	96	4
TAP	24	288	3
TAP	25	96	2
TAP	25	288	1
TAP	26	96	0
TAP	26	288	0
TAP	26	288	7
TAP	27	96	1
TAP	27	288	2
TAP	28	96	3
TAP	28	288	4
TAP	29	96	5
TAP	29	288	6
TAP	30	96	7
TAP	30	288	0
TAP	30	288	7
TAP	31	96	1
TAP	31	192	2
TAP	31	288	1
TAP	32	96	0
TAP	32	288	0
TAP	33	96	7
TAP	33	192	6
TAP	33	288	5
TAP	34	96	6
TAP	34	288	6
TAP	35	96	6
TAP	35	192	5
TAP	35	288	6
TAP	36	96	7
TAP	36	288	7
TAP	37	96	0
TAP	37	192	0
TAP	37	288	1
TAP	38	96	0
BRK	38	288	7
TAP	39	96	6
TAP	39	288	7
TAP	40	96	0
TAP	40	288	1
TAP	41	96	7
TAP	41	288	6
TAP	42	96	0
TAP	42	288	1
HLD	43	96	0	192
HLD	44	96	7	192
TAP	45	0	6
TAP	45	144	1
TAP	45	144	6
TAP	46	0	0
TAP	46	144	0
TAP	46	144	7
TAP	47	96	1
TAP	47	288	2
TAP	48	96	1
TAP	48	288	1
TAP	49	96	7
TAP	49	288	6
TAP	50	96	7
TAP	50	288	7
HLD	51	96	0	192
HLD	52	96	1	192
HLD	53	96	2	192
BRK	54	240	7
TAP	55	96	6
TAP	55	192	6
TAP	55	288	6
TAP	56	96	5
TAP	56	192	5
TAP	56	288	5
TAP	57	96	6
TAP	57	192	6
TAP	57	288	6
TAP	58	96	7
TAP	58	192	7
TAP	58	288	7
TAP	59	96	0
TAP	59	288	1
TAP	60	96	2
STR	60	288	3
SI_	60	288	3	96	384	7
TAP	63	96	1
TAP	63	192	1
TAP	63	288	1
TAP	64	96	2
TAP	64	192	2
TAP	64	288	2
TAP	65	96	1
TAP	65	192	1
TAP	65	288	1
TAP	66	96	0
TAP	66	192	0
TAP	66	288	0
TAP	67	96	7
TAP	67	288	6
TAP	68	96	5
STR	68	288	4
SI_	68	288	4	96	384	0
STR	70	288	7
SI_	70	288	7	96	384	4
TAP	73	96	5
TAP	73	288	5
TAP	74	96	6
TAP	74	288	6
TAP	75	96	7
TAP	75	288	5
TAP	76	96	3
TAP	76	288	1
TAP	77	96	7
TAP	77	288	6
TAP	78	144	0
BRK	78	240	0

T_REC_TAP	122
T_REC_BRK	4
T_REC_XTP	0
T_REC_HLD	9
T_REC_XHO	0
T_REC_STR	3
T_REC_BST	0
T_REC_XST	0
T_REC_TTP	0
T_REC_THO	0
T_REC_SLD	3
T_REC_ALL	141
T_NUM_TAP	125
T_NUM_BRK	4
T_NUM_HLD	9
T_NUM_SLD	3
T_NUM_ALL	141
T_JUDGE_TAP	129
T_JUDGE_HLD	64
T_JUDGE_SLD	3
T_JUDGE_ALL	196
TTM_EACHPAIRS	4
TTM_SCR_TAP	62500
TTM_SCR_BRK	10400
TTM_SCR_HLD	9000
TTM_SCR_SLD	4500
TTM_SCR_ALL	86400
TTM_SCR_S	83450
TTM_SCR_SS	86000
TTM_RAT_ACV	10046

