VERSION	0.00.00	1.03.00
FES_MODE	0
BPM_DEF	155.000	155.000	155.000	155.000
MET_DEF	4	4
RESOLUTION	384
CLK_DEF	384
COMPATIBLE_CODE	MA2

BPM	0	0	155.000
MET	0	0	4	4

TAP	2	192	1
TAP	2	240	1
TAP	2	288	2
TAP	2	312	3
TAP	2	336	4
TAP	2	360	5
TAP	3	0	6
TAP	3	96	6
TAP	3	168	5
TAP	3	192	5
TAP	3	240	0
TAP	3	336	1
TAP	4	240	2
TAP	4	288	3
TAP	4	312	3
TAP	5	0	6
TAP	5	96	5
TAP	5	168	6
TAP	5	192	6
TAP	5	240	0
TAP	5	336	1
BRK	6	144	1
TAP	6	240	6
TAP	6	288	5
TAP	6	312	4
TAP	6	336	3
TAP	6	360	2
TAP	7	0	1
TAP	7	96	1
TAP	7	168	2
TAP	7	192	2
TAP	7	240	7
TAP	7	336	6
TAP	8	240	5
TAP	8	288	4
TAP	8	312	4
TAP	9	0	1
TAP	9	96	2
TAP	9	168	1
TAP	9	192	1
TAP	9	240	0
TAP	9	336	7
TAP	10	0	6
TAP	10	24	6
TAP	10	96	0
TAP	10	120	0
TAP	10	192	7
TAP	10	240	0
TAP	10	264	1
TAP	10	288	2
TAP	10	312	3
TAP	10	336	4
TAP	10	360	5
HLD	11	0	6	96
TAP	11	48	7
HLD	11	96	0	96
TAP	11	144	1
HLD	11	192	2	96
TAP	11	240	3
HLD	11	288	4	96
TAP	11	336	5
STR	12	0	6
SI_	12	0	6	96	48	1
TAP	12	48	7
TAP	12	144	2
STR	12	192	3
SI_	12	192	3	96	48	0
STR	12	240	4
SI_	12	240	4	96	48	7
HLD	13	0	1	96
TAP	13	48	2
HLD	13	96	3	96
TAP	13	144	4
HLD	13	192	5	96
TAP	13	240	6
HLD	13	288	7	96
TAP	13	336	0
STR	14	0	1
SI_	14	0	1	96	48	4
TAP	14	48	2
TAP	14	144	5
TAP	14	192	6
TAP	14	240	7
TAP	14	288	0
TAP	14	288	7
HLD	15	0	6	96
TAP	15	48	7
HLD	15	96	0	96
TAP	15	144	1
HLD	15	192	2	96
TAP	15	240	3
HLD	15	288	4	96
TAP	15	336	5
STR	16	0	6
SI_	16	0	6	96	48	1
TAP	16	48	7
TAP	16	144	2
STR	16	192	3
SI_	16	192	3	96	48	0
STR	16	240	4
SI_	16	240	4	96	48	7
HLD	17	0	1	96
TAP	17	48	2
HLD	17	96	3	96
TAP	17	144	4
HLD	17	192	5	96
TAP	17	240	6
HLD	17	288	7	96
TAP	17	336	0
TAP	18	0	1
TAP	18	48	2
TAP	18	72	3
TAP	18	96	2
TAP	18	144	7
TAP	18	192	6
TAP	18	216	5
TAP	18	240	6
TAP	18	288	5
TAP	18	312	4
TAP	18	336	3
TAP	18	360	2
HLD	19	0	1	192
TAP	19	96	5
HLD	19	144	4	192
TAP	19	240	3
TAP	19	288	1
HLD	19	336	0	96
TAP	20	48	7
STR	20	96	7
SCR	20	96	7	96	48	2
STR	20	192	3
SCR	20	192	3	96	48	6
HLD	21	0	6	192
TAP	21	96	2
HLD	21	144	3	144
TAP	21	240	4
TAP	21	288	6
TAP	21	336	7
TAP	22	0	0
TAP	22	24	0
TAP	22	96	7
TAP	22	144	6
TAP	22	168	6
HLD	23	0	1	192
TAP	23	96	5
HLD	23	144	4	192
TAP	23	240	3
TAP	23	288	1
HLD	23	336	0	96
TAP	24	48	7
STR	24	96	7
SCR	24	96	7	96	48	2
STR	24	192	3
SCR	24	192	3	96	48	6
HLD	25	0	6	192
TAP	25	96	2
HLD	25	144	3	144
TAP	25	240	4
TAP	25	288	6
TAP	25	336	7
TAP	26	0	0
TAP	26	24	1
TAP	26	48	0
TAP	26	72	1
TAP	26	96	7
TAP	26	144	7
TAP	26	168	6
TAP	26	192	7
TAP	26	216	6
TAP	26	240	0
TAP	26	288	1
TAP	26	312	1
TAP	27	0	7
TAP	27	48	5
TAP	27	96	3
TAP	27	144	2
TAP	27	168	3
TAP	27	240	4
TAP	27	288	6
TAP	27	336	0
TAP	28	48	7
TAP	28	96	6
TAP	28	144	5
TAP	28	168	6
TAP	28	240	7
TAP	28	336	7
TAP	29	0	0
TAP	29	48	2
TAP	29	96	4
TAP	29	144	5
TAP	29	168	4
TAP	29	240	3
TAP	29	288	1
TAP	29	336	0
TAP	29	360	1
BRK	30	24	0
TAP	30	96	0
TAP	30	144	7
TAP	30	168	6
BRK	30	216	7
TAP	31	0	7
TAP	31	48	5
TAP	31	96	3
TAP	31	144	2
TAP	31	168	3
TAP	31	240	4
TAP	31	288	6
TAP	31	336	0
TAP	32	48	7
TAP	32	96	6
TAP	32	144	5
TAP	32	168	6
TAP	32	240	7
TAP	32	336	7
TAP	33	0	0
TAP	33	48	2
TAP	33	96	4
TAP	33	144	5
TAP	33	168	4
TAP	33	240	3
TAP	33	288	1
TAP	33	336	0
TAP	33	360	1
TAP	35	0	0
TAP	35	48	0
TAP	35	96	1
TAP	35	144	1
TAP	35	192	2
TAP	35	240	2
TAP	35	288	3
TAP	35	336	3
TAP	36	0	4
TAP	36	48	4
TAP	36	96	5
TAP	36	144	5
TAP	36	192	6
TAP	36	240	6
TAP	36	288	7
TAP	36	336	7
TAP	37	0	0
TAP	37	48	0
TAP	37	96	7
TAP	37	144	7
TAP	37	192	6
TAP	37	240	6
TAP	37	288	5
TAP	37	336	5
TAP	38	0	4
TAP	38	48	4
TAP	38	96	3
TAP	38	144	3
TAP	38	192	2
TAP	38	240	2
TAP	38	288	1
TAP	38	336	1
TAP	39	0	0
TAP	39	0	1
TAP	39	48	6
TAP	39	48	7
TAP	39	96	4
TAP	39	96	5
TAP	39	192	6
TAP	39	192	7
TAP	39	288	0
TAP	39	288	7
TAP	40	0	1
TAP	40	0	2
TAP	40	48	3
TAP	40	48	4
TAP	40	96	5
TAP	40	96	6
TAP	40	192	6
TAP	40	192	7
TAP	40	288	5
TAP	40	288	6
TAP	41	0	0
TAP	41	0	4
TAP	41	48	1
TAP	41	48	5
TAP	41	96	2
TAP	41	96	6
TAP	41	144	3
TAP	41	144	7
TAP	41	192	2
TAP	41	192	6
TAP	41	240	1
TAP	41	240	5
TAP	41	288	4
TAP	41	312	3
TAP	41	336	2
TAP	41	360	1
TAP	42	0	0
TAP	42	24	0
TAP	42	48	1
TAP	42	72	1
TAP	42	96	2
TAP	42	120	2
TAP	42	144	3
TAP	42	168	3
TAP	42	192	4
TAP	42	216	4
TAP	42	240	5
TAP	42	264	5
TAP	42	288	6
TAP	42	312	6
TAP	42	336	7
TAP	42	360	7
HLD	43	0	0	144
TAP	43	96	2
HLD	43	143	6	193
TAP	43	240	5
TAP	43	288	3
HLD	43	336	1	192
TAP	44	48	7
TAP	44	96	5
HLD	44	144	4	240
TAP	44	240	3
TAP	44	288	2
TAP	44	336	1
HLD	45	0	0	144
TAP	45	96	1
HLD	45	144	3	192
TAP	45	240	4
TAP	45	288	6
STR	45	336	7
SI_	45	336	7	96	48	3
STR	46	48	1
SI_	46	48	1	96	48	5
STR	46	144	6
SI_	46	144	6	96	48	2
HLD	47	0	0	144
TAP	47	96	2
HLD	47	143	6	193
TAP	47	240	5
TAP	47	288	3
HLD	47	336	1	192
TAP	48	48	7
TAP	48	96	5
HLD	48	144	4	192
TAP	48	240	3
TAP	48	288	2
TAP	48	336	1
TAP	49	0	0
TAP	49	0	2
TAP	49	96	5
TAP	49	96	7
TAP	49	144	0
TAP	49	144	6
TAP	49	240	6
TAP	49	288	5
TAP	49	288	7
BRK	49	336	0
BRK	49	336	6
TAP	50	96	0
TAP	50	96	2
BRK	50	144	1
BRK	50	144	7
HLD	51	0	0	144
TAP	51	96	2
HLD	51	143	6	193
TAP	51	240	5
TAP	51	288	3
HLD	51	336	1	192
TAP	52	48	7
TAP	52	96	5
HLD	52	144	4	240
TAP	52	240	3
TAP	52	288	2
TAP	52	336	1
HLD	53	0	0	144
TAP	53	96	1
HLD	53	144	3	192
TAP	53	240	4
TAP	53	288	6
STR	53	336	7
SI_	53	336	7	96	48	3
STR	54	48	1
SI_	54	48	1	96	48	5
STR	54	144	6
SI_	54	144	6	96	48	2
HLD	55	0	0	144
TAP	55	96	2
HLD	55	143	6	193
TAP	55	240	5
TAP	55	288	3
HLD	55	336	1	192
TAP	56	48	7
TAP	56	96	5
HLD	56	144	4	192
TAP	56	240	3
TAP	56	288	2
TAP	56	336	1
TAP	57	0	0
TAP	57	72	0
TAP	57	96	1
TAP	57	144	2
TAP	57	216	2
TAP	57	240	3
TAP	57	288	4
TAP	57	360	4
TAP	58	0	5
TAP	58	48	6
TAP	58	120	6
TAP	58	144	7
TAP	58	192	7
BRK	58	288	0
BRK	58	336	0
STR	59	0	1
SI_	59	0	1	96	49	4
TAP	59	48	1
TAP	59	144	2
STR	59	192	3
SI_	59	192	3	96	48	6
TAP	59	240	3
TAP	59	336	4
STR	60	0	5
SI_	60	0	5	96	48	0
TAP	60	48	5
TAP	60	144	7
STR	60	192	1
SI_	60	192	1	96	48	4
TAP	60	240	1
TAP	60	336	2
STR	61	0	3
SI_	61	0	3	96	48	6
TAP	61	48	3
TAP	61	144	4
STR	61	192	5
SI_	61	192	5	96	48	0
TAP	61	240	5
TAP	61	336	7
STR	62	0	1
SI_	62	0	1	96	48	4
TAP	62	48	1
TAP	62	144	2
STR	62	192	3
SI_	62	192	3	96	48	6
TAP	62	240	3
TAP	63	0	7
TAP	63	48	0
TAP	63	96	1
TAP	63	168	5
TAP	63	192	5
TAP	63	216	4
TAP	63	240	4
TAP	63	288	2
TAP	63	312	2
TAP	64	0	0
TAP	64	48	7
TAP	64	96	6
TAP	64	168	2
TAP	64	192	2
TAP	64	216	3
TAP	64	240	3
TAP	64	288	5
TAP	64	312	5
TAP	65	0	7
TAP	65	48	0
TAP	65	96	1
TAP	65	168	5
TAP	65	192	5
TAP	65	216	4
TAP	65	240	4
TAP	65	288	2
TAP	65	312	2
TAP	66	0	0
TAP	67	0	3
TAP	67	48	4
TAP	67	96	5
TAP	67	144	0
TAP	67	168	4
TAP	67	192	2
TAP	67	216	6
TAP	67	240	0
TAP	67	288	1
TAP	67	288	6

T_REC_TAP	371
T_REC_BRK	9
T_REC_XTP	0
T_REC_HLD	46
T_REC_XHO	0
T_REC_STR	25
T_REC_BST	0
T_REC_XST	0
T_REC_TTP	0
T_REC_THO	0
T_REC_SLD	25
T_REC_ALL	476
T_NUM_TAP	396
T_NUM_BRK	9
T_NUM_HLD	46
T_NUM_SLD	25
T_NUM_ALL	476
T_JUDGE_TAP	405
T_JUDGE_HLD	146
T_JUDGE_SLD	25
T_JUDGE_ALL	576
TTM_EACHPAIRS	25
TTM_SCR_TAP	198000
TTM_SCR_BRK	23400
TTM_SCR_HLD	46000
TTM_SCR_SLD	37500
TTM_SCR_ALL	304900
TTM_SCR_S	294900
TTM_SCR_SS	304000
TTM_RAT_ACV	10029

