VERSION	0.00.00	1.03.00
FES_MODE	0
BPM_DEF	155.000	155.000	155.000	155.000
MET_DEF	4	4
RESOLUTION	384
CLK_DEF	384
COMPATIBLE_CODE	MA2

BPM	0	0	155.000
MET	0	0	4	4

TAP	2	192	0
TAP	2	240	0
TAP	2	288	6
TAP	2	312	7
TAP	2	336	0
TAP	2	360	1
TAP	3	0	2
TAP	3	96	4
TAP	3	192	6
TAP	3	240	6
TAP	3	336	4
TAP	3	336	5
TAP	4	24	3
TAP	4	24	4
TAP	4	96	2
TAP	4	96	3
TAP	4	240	2
TAP	4	264	3
TAP	4	288	4
TAP	4	312	5
TAP	5	0	5
TAP	5	96	3
TAP	5	192	1
TAP	5	240	1
TAP	5	288	2
TAP	5	336	2
TAP	5	336	3
TAP	6	48	6
TAP	6	96	5
TAP	6	144	4
TAP	6	144	5
TAP	6	288	1
TAP	6	312	0
TAP	6	336	7
TAP	6	360	6
TAP	7	0	5
TAP	7	96	7
TAP	7	144	7
TAP	7	192	0
TAP	7	264	0
TAP	7	336	0
TAP	7	336	1
TAP	8	24	0
TAP	8	24	1
TAP	8	96	6
TAP	8	96	7
TAP	8	168	6
TAP	8	168	7
TAP	8	240	0
TAP	8	240	7
TAP	8	312	0
TAP	8	312	1
TAP	9	0	2
TAP	9	32	3
TAP	9	64	4
TAP	9	96	5
TAP	9	128	4
TAP	9	160	3
TAP	9	192	2
TAP	9	224	3
TAP	9	256	4
TAP	9	288	5
TAP	10	0	6
TAP	10	24	6
TAP	10	96	1
TAP	10	120	1
TAP	10	192	7
TAP	10	216	0
TAP	10	240	7
TAP	10	264	0
TAP	10	288	7
HLD	11	0	2	240
TAP	11	96	5
TAP	11	144	5
HLD	11	192	5	192
TAP	11	288	2
HLD	11	336	2	192
TAP	12	48	5
HLD	12	96	5	240
TAP	12	192	2
TAP	12	240	2
HLD	12	288	2	96
HLD	13	0	4	96
TAP	13	48	3
HLD	13	96	3	144
TAP	13	144	4
HLD	13	192	4	192
TAP	13	288	3
HLD	13	336	3	144
TAP	14	48	4
HLD	14	96	4	96
TAP	14	144	3
TAP	14	192	3
TAP	14	288	3
TAP	14	288	4
TAP	15	0	6
HLD	15	48	1	96
HLD	15	96	6	192
TAP	15	192	1
HLD	15	240	1	192
TAP	15	336	6
HLD	16	0	6	336
TAP	16	96	1
HLD	16	144	1	48
TAP	16	240	1
HLD	16	288	1	192
TAP	17	0	7
TAP	17	48	7
HLD	17	96	7	192
TAP	17	144	0
TAP	17	192	0
HLD	17	240	0	48
TAP	18	0	4
TAP	18	72	2
TAP	18	144	5
TAP	18	216	1
TAP	18	288	6
TAP	18	312	6
TAP	18	336	0
TAP	18	360	0
STR	19	0	7
SI_	19	0	7	96	96	2
STR	19	192	6
SI_	19	192	6	96	96	3
STR	19	336	5
SI_	19	336	5	96	96	2
STR	20	144	6
SI_	20	144	6	96	96	1
STR	21	0	0
SI_	21	0	0	96	96	5
STR	21	192	1
SI_	21	192	1	96	96	4
TAP	21	336	2
BRK	22	0	7
BRK	22	24	7
TAP	22	96	5
BRK	22	144	0
BRK	22	168	0
TAP	22	288	2
TAP	23	0	0
TAP	23	0	7
TAP	23	96	6
TAP	23	144	5
TAP	23	144	6
TAP	23	192	5
TAP	23	288	4
TAP	23	336	2
TAP	23	336	3
TAP	24	48	3
TAP	24	96	4
TAP	24	96	5
TAP	24	192	3
TAP	24	240	2
TAP	24	240	3
TAP	24	288	2
TAP	25	0	0
TAP	25	0	7
TAP	25	96	1
TAP	25	144	1
TAP	25	144	2
TAP	25	192	2
TAP	25	288	3
TAP	25	336	4
TAP	26	0	2
TAP	26	24	3
TAP	26	48	2
TAP	26	72	3
TAP	26	144	5
TAP	26	168	4
TAP	26	192	5
TAP	26	216	4
TAP	26	288	2
TAP	27	0	5
TAP	27	96	4
TAP	27	144	2
TAP	27	144	4
TAP	27	192	3
TAP	27	240	3
TAP	27	240	5
TAP	27	336	2
TAP	27	336	3
TAP	28	0	3
TAP	28	48	2
TAP	28	48	4
TAP	28	144	4
TAP	28	144	5
TAP	28	192	4
TAP	28	240	3
TAP	28	288	2
TAP	28	288	3
TAP	29	0	2
TAP	29	96	3
TAP	29	144	3
TAP	29	144	5
TAP	29	192	4
TAP	29	240	2
TAP	29	240	4
TAP	29	336	0
TAP	30	24	0
TAP	30	24	1
TAP	30	144	7
TAP	30	216	6
TAP	30	216	7
TAP	31	0	1
TAP	31	96	0
TAP	31	96	6
TAP	31	144	7
TAP	31	192	0
TAP	31	240	1
TAP	31	240	7
TAP	31	336	7
TAP	32	0	0
TAP	32	0	6
TAP	32	48	7
TAP	32	144	0
TAP	32	192	1
TAP	32	192	7
TAP	32	240	6
TAP	32	288	0
TAP	32	288	7
TAP	33	0	6
TAP	33	48	1
TAP	33	48	7
TAP	33	96	0
TAP	33	144	7
TAP	33	192	0
TAP	33	192	6
TAP	33	240	7
TAP	33	288	0
STR	33	336	1
SCL	33	336	1	96	144	6
TAP	33	336	7
TAP	35	0	5
TAP	35	144	5
TAP	35	168	4
TAP	35	192	3
TAP	35	336	2
TAP	35	360	1
TAP	36	0	0
TAP	36	144	7
TAP	36	168	6
TAP	36	192	5
TAP	36	336	4
TAP	36	360	3
TAP	37	0	2
TAP	37	144	1
TAP	37	168	0
TAP	37	192	7
TAP	37	336	6
TAP	37	360	5
TAP	38	0	4
TAP	38	144	3
TAP	38	168	2
TAP	38	192	1
TAP	38	336	0
TAP	38	360	7
TAP	39	0	0
TAP	39	144	7
TAP	39	168	0
TAP	39	192	1
TAP	39	336	2
TAP	39	360	3
TAP	40	0	4
TAP	40	144	5
TAP	40	168	6
TAP	40	192	7
TAP	40	336	0
TAP	40	360	1
TAP	41	0	2
TAP	41	144	3
TAP	41	168	4
TAP	41	192	5
TAP	41	336	6
TAP	41	360	7
STR	42	0	0
SI_	42	0	0	96	96	4
HLD	43	0	1	192
TAP	43	96	6
TAP	43	144	4
HLD	43	192	2	144
TAP	43	240	7
TAP	43	288	5
HLD	43	336	3	192
TAP	44	48	0
TAP	44	96	6
HLD	44	144	4	192
TAP	44	240	1
TAP	44	288	7
HLD	44	336	5	144
TAP	45	0	2
TAP	45	48	0
HLD	45	96	6	192
TAP	45	192	3
TAP	45	240	1
HLD	45	288	7	192
TAP	45	336	4
TAP	46	48	2
HLD	46	96	0	192
TAP	46	144	5
TAP	46	240	3
TAP	46	288	1
HLD	47	0	6	192
TAP	47	96	1
TAP	47	144	3
HLD	47	192	5	240
TAP	47	288	0
TAP	47	336	2
HLD	48	48	4	192
TAP	48	96	7
TAP	48	192	1
HLD	48	240	3	240
TAP	48	288	6
TAP	49	0	0
HLD	49	96	2	240
TAP	49	144	5
TAP	49	288	7
HLD	49	336	1	336
TAP	50	96	4
HLD	50	144	6	144
TAP	51	0	7
TAP	51	96	7
TAP	51	144	7
TAP	51	168	0
TAP	51	192	1
TAP	51	240	1
TAP	51	336	0
TAP	52	96	0
TAP	52	144	0
TAP	52	168	7
TAP	52	192	6
TAP	52	240	6
TAP	53	0	2
TAP	53	96	2
TAP	53	144	2
TAP	53	168	3
TAP	53	192	4
TAP	53	240	4
TAP	53	288	4
BRK	53	336	0
BRK	53	336	2
TAP	54	48	3
TAP	54	96	3
BRK	54	144	5
BRK	54	144	7
TAP	54	288	1
TAP	55	0	6
TAP	55	96	4
TAP	55	120	4
TAP	55	144	5
TAP	55	168	5
TAP	55	192	4
TAP	55	216	5
TAP	55	240	4
TAP	55	336	1
TAP	56	96	3
TAP	56	120	3
TAP	56	144	2
TAP	56	168	2
TAP	56	192	3
TAP	56	216	2
TAP	56	240	3
TAP	57	0	6
TAP	57	32	5
TAP	57	64	4
TAP	57	96	1
TAP	57	128	2
TAP	57	160	3
TAP	57	192	7
TAP	57	224	6
TAP	57	256	5
TAP	57	288	0
TAP	57	320	1
TAP	57	352	2
STR	58	0	0
SI_	58	0	0	96	48	5
STR	58	144	7
SI_	58	144	7	96	48	2
TAP	59	0	1
TAP	59	48	0
TAP	59	96	6
TAP	59	144	7
TAP	59	192	1
TAP	59	240	0
TAP	59	288	1
TAP	59	336	2
TAP	60	0	6
TAP	60	48	7
TAP	60	96	1
TAP	60	144	0
TAP	60	192	6
TAP	60	240	7
TAP	60	288	6
TAP	60	336	5
TAP	61	0	1
TAP	61	48	0
TAP	61	96	6
TAP	61	144	7
TAP	61	192	1
TAP	61	240	0
TAP	61	288	1
TAP	61	336	2
TAP	62	0	6
TAP	62	48	6
TAP	62	72	1
TAP	62	120	1
TAP	62	144	6
TAP	62	192	0
TAP	62	240	1
TAP	62	288	7
BRK	62	312	6
TAP	63	0	1
TAP	63	48	0
TAP	63	96	6
TAP	63	144	7
TAP	63	192	1
TAP	63	240	0
TAP	63	288	1
BRK	63	312	2
TAP	64	0	6
TAP	64	48	7
TAP	64	96	1
TAP	64	144	0
TAP	64	192	6
TAP	64	240	7
TAP	64	288	6
BRK	64	312	5
TAP	65	0	1
TAP	65	48	0
TAP	65	72	6
TAP	65	120	7
BRK	65	144	2
TAP	65	192	0
TAP	65	240	1
TAP	65	264	7
TAP	65	312	6
BRK	65	336	5
TAP	66	0	4
TAP	67	0	4
TAP	67	48	4
TAP	67	96	3
TAP	67	144	5
TAP	67	168	4
TAP	67	192	3
TAP	67	216	2
TAP	67	240	4
TAP	67	288	3

T_REC_TAP	380
T_REC_BRK	13
T_REC_XTP	0
T_REC_HLD	33
T_REC_XHO	0
T_REC_STR	10
T_REC_BST	0
T_REC_XST	0
T_REC_TTP	0
T_REC_THO	0
T_REC_SLD	10
T_REC_ALL	446
T_NUM_TAP	390
T_NUM_BRK	13
T_NUM_HLD	33
T_NUM_SLD	10
T_NUM_ALL	446
T_JUDGE_TAP	403
T_JUDGE_HLD	124
T_JUDGE_SLD	10
T_JUDGE_ALL	537
TTM_EACHPAIRS	39
TTM_SCR_TAP	195000
TTM_SCR_BRK	33800
TTM_SCR_HLD	33000
TTM_SCR_SLD	15000
TTM_SCR_ALL	276800
TTM_SCR_S	267250
TTM_SCR_SS	275500
TTM_RAT_ACV	10047

