VERSION	0.00.00	1.03.00
FES_MODE	0
BPM_DEF	155.000	155.000	155.000	155.000
MET_DEF	4	4
RESOLUTION	384
CLK_DEF	384
COMPATIBLE_CODE	MA2

BPM	0	0	155.000
MET	0	0	4	4

TAP	2	192	1
TAP	2	240	1
TAP	2	288	1
TAP	3	0	0
TAP	3	96	7
TAP	3	192	6
TAP	3	240	6
TAP	3	336	7
TAP	4	48	0
TAP	4	144	1
TAP	4	240	2
TAP	4	288	2
TAP	5	0	7
TAP	5	96	0
TAP	5	192	1
TAP	5	240	1
TAP	5	336	0
TAP	5	336	7
TAP	6	144	0
TAP	6	144	7
TAP	7	0	7
TAP	7	96	0
TAP	7	192	1
TAP	7	240	1
TAP	7	336	0
TAP	8	48	7
TAP	8	144	6
TAP	8	240	5
TAP	8	288	5
TAP	9	0	0
TAP	9	96	7
TAP	9	192	6
TAP	9	240	6
TAP	9	336	1
TAP	10	0	1
TAP	10	96	6
TAP	10	144	6
TAP	10	240	1
TAP	10	288	1
TAP	11	0	7
TAP	11	96	6
HLD	11	192	5	96
TAP	12	0	0
TAP	12	96	1
TAP	12	192	2
TAP	12	288	0
TAP	12	288	2
TAP	13	0	0
TAP	13	96	1
HLD	13	192	2	96
TAP	14	0	7
TAP	14	96	6
TAP	14	192	2
TAP	14	192	5
TAP	14	288	2
TAP	14	288	5
TAP	15	0	1
TAP	15	96	2
HLD	15	192	3	96
TAP	16	0	6
TAP	16	96	5
TAP	16	192	4
TAP	16	288	2
TAP	16	288	4
TAP	17	0	2
TAP	17	96	3
TAP	17	192	4
TAP	18	0	7
TAP	18	72	0
TAP	18	144	7
TAP	18	216	0
TAP	18	288	6
TAP	18	336	1
HLD	19	0	6	96
TAP	19	96	7
TAP	19	192	0
TAP	19	288	1
HLD	19	336	1	96
TAP	20	48	0
TAP	20	144	7
TAP	20	240	6
HLD	21	0	2	96
TAP	21	96	1
TAP	21	192	0
TAP	21	288	7
TAP	22	0	0
TAP	22	48	0
TAP	22	144	7
TAP	22	192	7
TAP	22	288	0
TAP	22	288	7
HLD	23	0	1	96
TAP	23	96	0
TAP	23	192	7
TAP	23	288	6
HLD	23	336	6	96
TAP	24	48	7
TAP	24	144	0
TAP	24	240	1
HLD	25	0	5	96
TAP	25	96	6
TAP	25	192	7
TAP	25	288	0
TAP	26	0	7
TAP	26	48	7
TAP	26	96	7
TAP	26	144	0
TAP	26	192	0
TAP	26	240	0
BRK	26	288	6
TAP	27	0	0
TAP	27	96	1
TAP	27	192	2
TAP	27	288	3
TAP	27	336	3
TAP	28	48	4
TAP	28	144	3
TAP	28	240	4
TAP	29	0	0
TAP	29	96	7
TAP	29	192	6
HLD	29	336	7	72
HLD	30	144	0	72
TAP	31	0	7
TAP	31	96	6
TAP	31	192	5
TAP	31	288	4
TAP	31	336	4
TAP	32	48	3
TAP	32	144	4
TAP	32	240	3
TAP	33	0	7
TAP	33	96	0
TAP	33	192	1
TAP	33	288	2
STR	33	336	2
SCR	33	336	2	96	144	5
TAP	35	0	0
TAP	35	48	0
TAP	35	336	7
TAP	36	0	7
TAP	36	48	7
TAP	36	336	6
TAP	37	0	6
TAP	37	48	6
TAP	37	336	7
TAP	38	0	7
TAP	38	48	7
TAP	38	336	0
TAP	39	0	0
TAP	39	144	1
TAP	39	192	1
TAP	39	336	2
TAP	40	0	2
TAP	40	144	3
TAP	40	192	3
TAP	40	336	4
TAP	41	0	4
TAP	41	144	5
TAP	41	192	5
TAP	41	336	6
BRK	42	0	1
BRK	42	0	6
TAP	43	0	0
TAP	43	0	6
TAP	43	96	7
TAP	43	192	6
TAP	43	288	5
TAP	43	336	4
TAP	43	336	6
TAP	44	48	5
TAP	44	144	3
TAP	44	144	5
TAP	44	240	4
TAP	45	0	1
TAP	45	0	3
TAP	45	96	2
TAP	45	192	1
TAP	45	288	0
TAP	45	336	1
TAP	45	336	7
TAP	46	48	7
TAP	46	144	0
TAP	46	144	6
TAP	47	0	1
TAP	47	0	7
TAP	47	96	0
TAP	47	192	1
TAP	47	288	2
TAP	47	336	3
TAP	47	336	4
TAP	48	48	5
TAP	48	144	3
TAP	48	144	4
TAP	48	240	2
TAP	49	0	6
TAP	49	48	6
TAP	49	144	1
TAP	49	192	1
TAP	49	288	4
HLD	49	336	4	96
TAP	50	96	3
HLD	50	144	3	96
TAP	51	0	0
TAP	51	96	0
TAP	51	192	7
TAP	51	240	7
TAP	51	336	6
TAP	52	48	1
TAP	52	144	1
TAP	52	144	6
TAP	52	240	1
TAP	52	336	6
TAP	53	0	2
TAP	53	96	2
TAP	53	192	5
TAP	53	240	5
TAP	53	336	2
TAP	53	336	3
TAP	54	48	4
TAP	54	144	4
TAP	54	144	5
TAP	55	0	6
TAP	55	96	6
TAP	55	192	7
TAP	55	240	7
TAP	55	288	7
TAP	55	336	1
TAP	56	48	0
TAP	56	96	0
TAP	56	144	6
TAP	56	240	7
TAP	56	288	7
TAP	57	0	1
TAP	57	48	1
TAP	57	144	6
TAP	57	192	6
TAP	57	288	3
HLD	57	336	3	96
TAP	58	96	4
HLD	58	144	4	96
TAP	59	0	0
TAP	59	96	0
TAP	59	192	0
TAP	59	192	7
TAP	59	288	0
TAP	59	288	1
TAP	60	0	0
TAP	60	96	0
TAP	60	96	1
TAP	60	192	0
TAP	60	192	7
TAP	60	288	0
TAP	60	288	1
TAP	61	0	7
TAP	61	96	7
TAP	61	192	0
TAP	61	192	7
TAP	61	288	6
TAP	61	288	7
TAP	62	0	0
TAP	62	72	0
TAP	62	240	7
TAP	62	312	7
STR	63	0	7
SI_	63	0	7	96	96	4
TAP	63	240	0
TAP	63	312	0
STR	64	0	0
SI_	64	0	0	96	96	3
TAP	64	240	7
TAP	64	312	7
STR	65	0	7
SI_	65	0	7	96	96	4
TAP	65	240	0
TAP	65	312	0
BRK	66	0	0
TAP	67	0	6
TAP	67	96	2
TAP	67	192	3
TAP	67	192	7
TAP	67	288	0
TAP	67	288	4

T_REC_TAP	256
T_REC_BRK	4
T_REC_XTP	0
T_REC_HLD	15
T_REC_XHO	0
T_REC_STR	4
T_REC_BST	0
T_REC_XST	0
T_REC_TTP	0
T_REC_THO	0
T_REC_SLD	4
T_REC_ALL	283
T_NUM_TAP	260
T_NUM_BRK	4
T_NUM_HLD	15
T_NUM_SLD	4
T_NUM_ALL	283
T_JUDGE_TAP	264
T_JUDGE_HLD	30
T_JUDGE_SLD	4
T_JUDGE_ALL	298
TTM_EACHPAIRS	29
TTM_SCR_TAP	130000
TTM_SCR_BRK	10400
TTM_SCR_HLD	15000
TTM_SCR_SLD	6000
TTM_SCR_ALL	161400
TTM_SCR_S	156200
TTM_SCR_SS	161000
TTM_RAT_ACV	10024

