VERSION	0.00.00	1.03.00
FES_MODE	0
BPM_DEF	155.000	155.000	155.000	155.000
MET_DEF	4	4
RESOLUTION	384
CLK_DEF	384
COMPATIBLE_CODE	MA2

BPM	0	0	155.000
MET	0	0	4	4

TAP	3	0	1
TAP	3	96	1
HLD	3	192	2	144
TAP	5	0	7
TAP	5	96	7
TAP	5	192	6
HLD	5	336	6	336
TAP	7	0	6
TAP	7	96	6
HLD	7	192	5	144
TAP	9	0	0
TAP	9	96	0
TAP	9	192	1
HLD	9	336	1	288
TAP	11	0	7
TAP	11	96	7
TAP	11	288	6
TAP	12	96	5
TAP	12	288	6
TAP	13	0	0
TAP	13	96	0
TAP	13	288	1
TAP	14	96	2
BRK	14	288	1
TAP	15	0	7
TAP	15	96	7
TAP	15	288	6
TAP	16	96	5
TAP	16	288	6
TAP	17	0	0
TAP	17	96	0
TAP	17	288	1
TAP	18	96	2
TAP	18	288	3
STR	19	0	3
SI_	19	0	3	96	192	0
STR	21	0	7
SI_	21	0	7	96	192	4
STR	23	0	2
SI_	23	0	2	96	192	5
STR	25	0	6
SI_	25	0	6	96	192	1
TAP	27	0	0
TAP	27	96	1
HLD	27	192	0	144
TAP	29	0	7
TAP	29	96	6
TAP	29	192	7
TAP	29	336	7
TAP	30	24	7
TAP	30	144	0
TAP	30	216	0
TAP	31	0	1
TAP	31	96	2
HLD	31	192	1	144
TAP	33	0	6
TAP	33	96	5
HLD	33	192	6	144
STR	35	0	4
SI_	35	0	4	96	192	7
STR	37	0	3
SI_	37	0	3	96	192	0
HLD	39	0	7	192
HLD	40	0	6	192
HLD	41	0	5	192
HLD	42	0	4	192
TAP	43	0	0
TAP	43	0	1
TAP	43	96	7
TAP	43	192	6
TAP	43	288	7
TAP	43	336	7
TAP	45	0	0
TAP	45	96	1
TAP	45	192	2
TAP	45	288	1
TAP	45	336	1
BRK	46	288	0
TAP	47	0	6
TAP	47	0	7
TAP	47	96	5
TAP	47	192	4
TAP	47	288	5
TAP	47	336	5
TAP	49	0	4
TAP	49	96	4
TAP	49	192	3
TAP	49	288	3
TAP	50	0	2
TAP	50	96	2
TAP	50	192	1
TAP	50	288	1
TAP	51	0	6
TAP	51	0	7
TAP	51	96	0
TAP	51	192	1
TAP	51	288	0
TAP	51	336	0
TAP	53	0	7
TAP	53	96	6
TAP	53	192	5
TAP	53	288	6
TAP	53	336	6
BRK	54	288	7
TAP	55	0	0
TAP	55	0	1
TAP	55	96	2
TAP	55	192	3
TAP	55	288	2
TAP	55	336	2
TAP	57	0	3
TAP	57	96	3
TAP	57	192	4
TAP	57	288	4
TAP	58	0	5
TAP	58	96	5
TAP	58	192	6
TAP	58	288	6
STR	59	0	0
SI_	59	0	0	96	192	4
STR	61	0	7
SI_	61	0	7	96	192	3
HLD	63	0	5	192
HLD	64	0	1	192
HLD	65	0	7	192
TAP	66	0	0
TAP	67	0	7
TAP	67	96	6
TAP	67	192	5
BRK	67	288	4

T_REC_TAP	96
T_REC_BRK	4
T_REC_XTP	0
T_REC_HLD	14
T_REC_XHO	0
T_REC_STR	8
T_REC_BST	0
T_REC_XST	0
T_REC_TTP	0
T_REC_THO	0
T_REC_SLD	8
T_REC_ALL	130
T_NUM_TAP	104
T_NUM_BRK	4
T_NUM_HLD	14
T_NUM_SLD	8
T_NUM_ALL	130
T_JUDGE_TAP	108
T_JUDGE_HLD	56
T_JUDGE_SLD	8
T_JUDGE_ALL	172
TTM_EACHPAIRS	4
TTM_SCR_TAP	52000
TTM_SCR_BRK	10400
TTM_SCR_HLD	14000
TTM_SCR_SLD	12000
TTM_SCR_ALL	88400
TTM_SCR_S	85400
TTM_SCR_SS	88000
TTM_RAT_ACV	10045

