VERSION	0.00.00	1.03.00
FES_MODE	0
BPM_DEF	203.000	203.000	203.000	203.000
MET_DEF	4	4
RESOLUTION	384
CLK_DEF	384
COMPATIBLE_CODE	MA2

BPM	0	0	203.000
MET	0	0	4	4

TAP	1	0	2
TAP	1	48	1
TAP	1	96	0
HLD	1	144	7	192
TAP	1	240	6
TAP	1	288	5
HLD	1	336	4	192
TAP	2	48	1
TAP	2	96	2
HLD	2	144	1	192
TAP	2	240	0
TAP	2	288	7
TAP	2	336	0
TAP	3	0	7
TAP	3	48	6
TAP	3	96	5
HLD	3	144	4	192
TAP	3	240	3
TAP	3	288	2
HLD	3	336	1	192
TAP	4	48	2
TAP	4	96	3
HLD	4	144	4	240
TAP	4	240	5
TAP	4	288	6
TAP	4	336	7
HLD	5	0	1	192
HLD	5	192	0	192
HLD	6	0	7	192
HLD	6	192	6	192
HLD	7	0	5	240
HLD	7	240	6	48
HLD	7	288	7	384
HLD	7	336	0	336
HLD	9	0	4	192
HLD	9	192	5	192
HLD	10	0	6	192
HLD	10	192	7	192
HLD	11	0	0	240
TAP	11	240	7
TAP	11	288	0
HLD	11	336	1	336
HLD	11	336	6	336
TAP	13	0	0
TAP	13	0	7
TAP	13	48	6
TAP	13	96	3
TAP	13	144	5
TAP	13	192	2
TAP	13	192	6
TAP	13	240	4
TAP	13	288	1
TAP	13	336	6
TAP	14	0	0
TAP	14	0	7
TAP	14	48	6
TAP	14	96	3
TAP	14	144	5
TAP	14	192	2
TAP	14	192	6
TAP	14	240	4
TAP	14	288	1
TAP	14	336	6
TAP	15	0	0
TAP	15	0	7
TAP	15	48	1
TAP	15	96	4
TAP	15	144	2
TAP	15	192	1
TAP	15	192	5
TAP	15	240	3
TAP	15	288	6
TAP	15	336	1
TAP	16	0	0
TAP	16	0	7
TAP	16	48	1
TAP	16	96	4
TAP	16	144	2
TAP	16	192	1
TAP	16	192	5
TAP	16	240	3
TAP	16	288	6
TAP	16	336	1
TAP	17	0	3
TAP	17	0	4
TAP	17	48	5
TAP	17	96	0
TAP	17	144	6
TAP	17	192	1
TAP	17	192	5
TAP	17	240	7
TAP	17	288	2
TAP	17	336	5
TAP	18	0	3
TAP	18	0	4
TAP	18	48	5
TAP	18	96	0
TAP	18	144	6
TAP	18	192	1
TAP	18	192	5
TAP	18	240	7
TAP	18	288	2
TAP	18	336	5
TAP	19	0	3
TAP	19	0	4
TAP	19	48	2
TAP	19	96	7
TAP	19	144	1
TAP	19	192	2
TAP	19	192	6
TAP	19	240	0
TAP	19	288	5
TAP	19	336	2
TAP	20	0	3
TAP	20	0	4
TAP	20	48	2
TAP	20	96	7
TAP	20	144	1
TAP	20	192	2
TAP	20	192	6
TAP	20	240	0
TAP	20	288	5
TAP	20	336	2
TAP	21	0	0
TAP	21	0	7
TAP	21	48	6
TAP	21	96	6
TAP	21	144	6
TAP	21	192	0
TAP	21	192	7
TAP	21	240	1
TAP	21	288	1
TAP	21	336	1
TAP	22	0	3
TAP	22	0	4
TAP	22	48	5
TAP	22	96	5
TAP	22	144	5
TAP	22	192	3
TAP	22	192	4
TAP	22	240	2
TAP	22	288	2
TAP	22	336	2
TAP	23	0	3
TAP	23	0	5
TAP	23	48	4
TAP	23	96	4
TAP	23	144	4
TAP	23	192	2
TAP	23	192	4
TAP	23	240	3
TAP	23	288	3
TAP	23	336	3
TAP	24	0	4
TAP	24	0	6
TAP	24	48	5
TAP	24	96	5
TAP	24	144	5
TAP	24	192	1
TAP	24	192	3
TAP	24	240	2
TAP	24	288	2
TAP	24	336	2
TAP	25	0	0
TAP	25	0	6
TAP	25	48	1
TAP	25	96	0
TAP	25	144	1
TAP	25	192	2
TAP	25	192	6
TAP	25	240	1
TAP	25	288	2
TAP	25	336	1
TAP	26	0	1
TAP	26	0	7
TAP	26	48	6
TAP	26	96	7
TAP	26	144	6
TAP	26	192	1
TAP	26	192	5
TAP	26	240	6
TAP	26	288	5
TAP	26	336	6
TAP	27	0	2
TAP	27	0	6
TAP	27	48	3
TAP	27	96	2
TAP	27	144	3
TAP	27	192	4
TAP	27	192	6
TAP	27	240	3
TAP	27	288	4
TAP	27	336	3
TAP	28	0	2
TAP	28	0	6
TAP	28	48	5
TAP	28	96	6
TAP	28	144	5
TAP	28	192	2
TAP	28	192	4
TAP	28	240	5
TAP	28	288	4
TAP	28	336	5
TAP	29	0	3
TAP	29	48	4
TAP	29	96	1
TAP	29	144	4
TAP	29	192	0
TAP	29	240	0
TAP	29	240	4
TAP	29	336	4
HLD	29	336	7	432
TAP	30	0	5
TAP	30	48	4
TAP	30	144	4
TAP	30	240	4
TAP	30	336	4
TAP	31	0	3
TAP	31	48	4
TAP	31	96	2
TAP	31	144	4
TAP	31	192	1
TAP	31	240	1
TAP	31	240	4
HLD	31	336	1	432
TAP	31	336	4
TAP	32	0	3
TAP	32	48	4
TAP	32	144	4
TAP	32	240	4
TAP	32	336	4
TAP	33	0	2
TAP	33	48	3
TAP	33	96	6
TAP	33	144	3
TAP	33	192	7
TAP	33	240	3
TAP	33	240	7
HLD	33	336	0	192
TAP	33	336	3
TAP	34	0	4
TAP	34	48	3
TAP	34	144	3
TAP	34	192	1
TAP	34	192	4
TAP	34	288	0
TAP	34	288	5
STR	35	0	6
SI_	35	0	6	96	48	3
STR	35	0	7
SI_	35	0	7	96	48	2
STR	35	192	0
SI_	35	192	0	96	48	5
STR	35	192	1
SI_	35	192	1	96	48	4
STR	36	0	0
SCR	36	0	0	96	48	3
STR	36	0	7
SCL	36	0	7	96	48	4
STR	36	192	5
SCL	36	192	5	96	48	2
STR	36	192	6
SCR	36	192	6	96	48	1
TAP	37	0	7
TAP	37	96	5
TAP	37	144	6
TAP	37	288	4
TAP	38	0	0
TAP	38	96	2
TAP	38	144	1
STR	38	288	7
SCL	38	288	7	96	48	4
STR	39	0	7
SI_	39	0	7	96	48	3
STR	39	96	7
SI_	39	96	7	96	48	4
STR	39	192	7
SI_	39	192	7	96	48	2
STR	39	288	7
SCL	39	288	7	96	48	4
STR	40	0	7
SI_	40	0	7	96	48	3
STR	40	96	7
SI_	40	96	7	96	48	4
STR	40	192	7
SI_	40	192	7	96	48	2
TAP	40	288	7
TAP	41	96	7
TAP	41	192	3
TAP	41	288	0
HLD	42	0	5	192
TAP	42	192	2
STR	42	288	0
SI_	42	288	0	96	48	3
STR	43	0	7
SI_	43	0	7	96	48	4
STR	43	96	6
SI_	43	96	6	96	48	1
STR	43	192	2
SI_	43	192	2	96	48	5
STR	43	288	7
SI_	43	288	7	96	48	3
STR	44	0	4
SCR	44	0	4	96	48	7
STR	44	96	0
SCR	44	96	0	96	48	3
STR	44	192	7
SI_	44	192	7	96	48	4
TAP	44	288	0
TAP	45	0	4
TAP	45	96	1
TAP	45	144	2
TAP	45	240	5
TAP	45	288	6
TAP	45	336	4
TAP	46	0	7
TAP	46	96	3
TAP	46	144	4
TAP	46	240	1
STR	46	288	7
SI_	46	288	7	96	48	4
TAP	46	336	7
STR	47	0	0
SI_	47	0	0	96	48	3
STR	47	96	1
SI_	47	96	1	96	48	6
STR	47	192	5
SI_	47	192	5	96	48	2
STR	47	288	0
SI_	47	288	0	96	48	4
STR	48	0	3
SCL	48	0	3	96	48	0
STR	48	96	7
SCL	48	96	7	96	48	4
STR	48	192	0
SI_	48	192	0	96	48	3
TAP	48	288	7
TAP	49	96	2
TAP	49	96	4
TAP	49	192	1
TAP	49	192	6
TAP	49	288	3
TAP	49	288	5
HLD	50	0	2	144
HLD	50	0	4	144
TAP	50	192	2
TAP	50	192	4
STR	50	288	0
SCR	50	288	0	96	48	3
STR	50	288	7
SCL	50	288	7	96	48	4
STR	51	0	0
SI_	51	0	0	96	48	3
STR	51	0	7
SI_	51	0	7	96	48	4
STR	51	96	0
SI_	51	96	0	96	48	4
STR	51	96	7
SI_	51	96	7	96	48	3
TAP	51	192	0
TAP	51	192	7
BRK	51	336	2
BRK	51	336	5
BRK	52	48	1
BRK	52	48	6
BRK	52	144	0
BRK	52	144	7
BRK	52	288	1
TAP	52	312	6
BRK	52	336	1
TAP	52	360	6
TAP	53	0	1
TAP	53	48	0
TAP	53	48	4
TAP	53	96	5
TAP	53	144	0
TAP	53	144	6
TAP	53	192	1
TAP	53	240	2
TAP	53	240	5
TAP	53	288	6
TAP	53	336	1
TAP	53	336	7
TAP	54	0	2
TAP	54	48	3
TAP	54	48	7
TAP	54	96	6
TAP	54	144	3
TAP	54	144	5
TAP	54	192	2
TAP	54	240	1
TAP	54	240	6
TAP	54	288	5
TAP	54	336	2
TAP	54	336	4
TAP	55	0	3
TAP	55	48	1
TAP	55	48	4
TAP	55	96	5
TAP	55	144	2
TAP	55	144	6
TAP	55	192	3
TAP	55	240	4
TAP	55	240	7
TAP	55	288	6
TAP	55	336	3
TAP	55	336	5
TAP	56	0	2
TAP	56	48	1
TAP	56	48	7
TAP	56	96	6
TAP	56	144	2
TAP	56	144	5
TAP	56	192	1
TAP	56	240	0
TAP	56	240	4
TAP	56	288	5
TAP	56	336	1
TAP	56	336	6
TAP	57	0	3
TAP	57	0	4
TAP	57	48	3
TAP	57	48	4
TAP	57	96	2
TAP	57	96	5
TAP	57	144	2
TAP	57	144	5
TAP	57	192	1
TAP	57	192	6
TAP	57	240	1
TAP	57	240	6
TAP	57	288	0
TAP	57	288	7
TAP	57	336	0
TAP	57	336	7
TAP	58	0	2
TAP	58	0	3
TAP	58	48	2
TAP	58	48	3
TAP	58	96	1
TAP	58	96	4
TAP	58	144	1
TAP	58	144	4
TAP	58	192	0
TAP	58	192	5
TAP	58	240	0
TAP	58	240	5
TAP	58	288	6
TAP	58	288	7
STR	59	0	6
SI_	59	0	6	96	48	3
STR	59	0	7
SI_	59	0	7	96	48	2
STR	59	192	0
SI_	59	192	0	96	48	5
STR	59	192	1
SI_	59	192	1	96	48	4
STR	60	0	0
SCR	60	0	0	96	48	3
STR	60	0	7
SCL	60	0	7	96	48	4
STR	60	192	5
SCL	60	192	5	96	48	2
STR	60	192	6
SCR	60	192	6	96	48	1
TAP	61	0	0
TAP	61	48	1
TAP	61	48	7
TAP	61	96	6
TAP	61	144	1
TAP	61	144	5
TAP	61	192	2
TAP	61	240	3
TAP	61	240	6
TAP	61	288	5
TAP	61	336	2
TAP	61	336	4
TAP	62	0	3
TAP	62	48	2
TAP	62	48	4
TAP	62	96	3
TAP	62	144	2
TAP	62	144	4
TAP	62	192	1
TAP	62	240	0
TAP	62	240	3
TAP	62	288	4
TAP	62	336	1
TAP	62	336	5
TAP	63	0	0
TAP	63	48	1
TAP	63	48	7
TAP	63	96	6
TAP	63	144	1
TAP	63	144	7
TAP	63	192	0
TAP	63	240	1
TAP	63	240	7
TAP	63	288	6
TAP	63	336	1
TAP	63	336	5
TAP	64	0	0
TAP	64	0	7
TAP	64	48	2
TAP	64	48	4
TAP	64	96	1
TAP	64	96	6
TAP	64	144	3
TAP	64	144	5
TAP	64	192	2
TAP	64	192	7
TAP	64	240	0
TAP	64	240	4
TAP	64	288	3
TAP	64	288	6
TAP	64	336	1
TAP	64	336	5
TAP	65	0	0
TAP	65	0	2
TAP	65	96	5
TAP	65	96	7
TAP	65	192	2
TAP	65	192	4
TAP	65	240	3
TAP	65	240	5
TAP	65	336	1
TAP	65	336	3
TAP	66	96	3
TAP	66	96	4
TAP	66	192	2
TAP	66	192	5
TAP	66	288	1
TAP	66	288	6
HLD	67	0	0	192
HLD	67	0	7	192
BRK	67	240	1
BRK	67	240	6
BRK	67	288	2
BRK	67	288	5
BRK	67	336	3
BRK	67	336	4
STR	68	288	4
SI_	68	288	4	96	768	1
STR	68	288	5
SI_	68	288	5	96	768	0
STR	72	288	0
SI_	72	288	0	96	768	3
STR	72	288	7
SI_	72	288	7	96	768	4

T_REC_TAP	406
T_REC_BRK	14
T_REC_XTP	0
T_REC_HLD	29
T_REC_XHO	0
T_REC_STR	50
T_REC_BST	0
T_REC_XST	0
T_REC_TTP	0
T_REC_THO	0
T_REC_SLD	50
T_REC_ALL	549
T_NUM_TAP	456
T_NUM_BRK	14
T_NUM_HLD	29
T_NUM_SLD	50
T_NUM_ALL	549
T_JUDGE_TAP	470
T_JUDGE_HLD	137
T_JUDGE_SLD	50
T_JUDGE_ALL	657
TTM_EACHPAIRS	126
TTM_SCR_TAP	228000
TTM_SCR_BRK	36400
TTM_SCR_HLD	29000
TTM_SCR_SLD	75000
TTM_SCR_ALL	368400
TTM_SCR_S	356000
TTM_SCR_SS	367000
TTM_RAT_ACV	10038

