VERSION	0.00.00	1.03.00
FES_MODE	0
BPM_DEF	203.000	203.000	203.000	203.000
MET_DEF	4	4
RESOLUTION	384
CLK_DEF	384
COMPATIBLE_CODE	MA2

BPM	0	0	203.000
MET	0	0	4	4

TAP	1	0	4
TAP	1	96	3
TAP	1	192	5
TAP	1	288	2
TAP	2	0	6
TAP	2	96	7
TAP	2	192	0
TAP	2	288	1
TAP	3	0	3
TAP	3	96	4
TAP	3	192	2
TAP	3	288	5
TAP	4	0	1
TAP	4	96	0
TAP	4	192	7
TAP	4	288	6
TAP	5	0	3
HLD	5	0	4	96
TAP	5	96	3
TAP	5	192	3
HLD	5	192	5	96
TAP	5	288	3
TAP	6	0	3
HLD	6	0	6	96
TAP	6	96	3
TAP	6	192	3
HLD	6	192	7	96
TAP	6	288	3
TAP	7	0	3
HLD	7	0	7	192
TAP	7	96	3
TAP	7	192	3
STR	7	240	7
SCL	7	240	7	96	240	4
TAP	7	288	3
TAP	8	0	3
TAP	8	96	3
TAP	8	192	3
TAP	8	288	3
HLD	9	0	3	96
TAP	9	0	4
TAP	9	96	4
HLD	9	192	2	96
TAP	9	192	4
TAP	9	288	4
HLD	10	0	1	96
TAP	10	0	4
TAP	10	96	4
HLD	10	192	0	96
TAP	10	192	4
TAP	10	288	4
HLD	11	0	0	192
HLD	11	0	4	192
STR	11	240	0
SCR	11	240	0	96	240	3
STR	11	240	4
SCR	11	240	4	96	240	7
TAP	13	0	1
TAP	13	0	6
TAP	13	96	4
TAP	13	96	5
TAP	13	192	3
TAP	13	192	4
TAP	13	288	2
TAP	13	288	3
TAP	14	0	1
TAP	14	0	6
TAP	14	96	2
TAP	14	96	3
TAP	14	192	3
TAP	14	192	4
TAP	14	288	4
TAP	14	288	5
TAP	15	0	1
TAP	15	0	6
BRK	15	96	3
TAP	15	96	6
TAP	15	192	1
TAP	15	192	6
BRK	15	288	3
TAP	15	288	6
TAP	16	0	1
TAP	16	0	6
TAP	16	96	1
BRK	16	96	4
TAP	16	192	1
TAP	16	192	6
TAP	16	288	1
BRK	16	288	4
TAP	17	0	1
TAP	17	0	6
TAP	17	96	4
TAP	17	96	5
TAP	17	192	6
TAP	17	192	7
TAP	17	288	4
TAP	17	288	5
TAP	18	0	1
TAP	18	0	6
TAP	18	96	2
TAP	18	96	3
TAP	18	192	0
TAP	18	192	1
TAP	18	288	2
TAP	18	288	3
TAP	19	0	1
TAP	19	0	6
BRK	19	96	0
TAP	19	96	5
TAP	19	192	1
TAP	19	192	6
BRK	19	288	0
TAP	19	288	5
TAP	20	0	1
TAP	20	0	6
TAP	20	96	2
BRK	20	96	7
TAP	20	192	1
TAP	20	192	6
TAP	20	288	2
BRK	20	288	7
TAP	21	0	0
TAP	21	0	1
TAP	21	96	2
TAP	21	96	7
TAP	21	192	3
TAP	21	192	6
TAP	21	288	4
TAP	21	288	5
TAP	22	0	6
TAP	22	0	7
TAP	22	96	0
TAP	22	96	5
TAP	22	192	1
TAP	22	192	4
TAP	22	288	2
TAP	22	288	3
TAP	23	0	0
TAP	23	0	6
BRK	23	96	1
TAP	23	96	7
TAP	23	192	0
TAP	23	192	2
TAP	23	288	1
BRK	23	288	3
TAP	24	0	1
TAP	24	0	7
TAP	24	96	0
BRK	24	96	6
TAP	24	192	5
TAP	24	192	7
BRK	24	288	4
TAP	24	288	6
TAP	25	0	2
TAP	25	0	4
TAP	25	96	0
TAP	25	96	6
TAP	25	192	1
TAP	25	192	5
TAP	25	288	2
TAP	25	288	4
TAP	26	0	3
TAP	26	0	5
TAP	26	96	1
TAP	26	96	7
TAP	26	192	2
TAP	26	192	6
TAP	26	288	3
TAP	26	288	5
TAP	27	0	4
TAP	27	0	7
BRK	27	96	0
TAP	27	96	5
TAP	27	192	1
TAP	27	192	6
TAP	27	288	2
BRK	27	288	7
TAP	28	0	0
TAP	28	0	3
TAP	28	96	2
BRK	28	96	7
TAP	28	192	1
TAP	28	192	6
BRK	28	288	0
TAP	28	288	5
TAP	29	96	1
TAP	29	192	0
TAP	29	240	7
HLD	29	336	6	384
TAP	30	96	5
TAP	30	192	4
TAP	30	240	3
HLD	30	336	2	384
TAP	31	96	7
TAP	31	192	6
TAP	31	240	5
HLD	31	336	4	384
TAP	32	96	0
TAP	32	192	1
TAP	32	240	2
HLD	32	336	3	384
TAP	33	96	1
TAP	33	192	0
TAP	33	240	7
HLD	33	336	6	336
TAP	34	288	1
HLD	35	0	5	144
HLD	35	0	7	144
HLD	35	192	0	144
HLD	35	192	6	144
HLD	36	0	1	144
HLD	36	0	7	144
HLD	36	192	0	144
HLD	36	192	2	144
HLD	37	0	6	96
TAP	37	144	6
HLD	37	192	6	96
HLD	38	0	1	96
TAP	38	144	1
HLD	38	192	1	96
HLD	39	0	0	96
HLD	39	0	5	96
TAP	39	144	0
TAP	39	144	5
HLD	39	192	0	96
HLD	39	192	5	96
HLD	40	0	2	96
HLD	40	0	7	96
TAP	40	144	2
TAP	40	144	7
HLD	40	192	2	96
HLD	40	192	7	96
HLD	41	0	4	96
TAP	41	144	4
HLD	41	192	4	96
HLD	42	0	3	96
TAP	42	144	3
HLD	42	192	3	96
HLD	43	0	5	96
HLD	43	0	7	96
TAP	43	144	5
TAP	43	144	7
HLD	43	192	5	96
HLD	43	192	7	96
HLD	44	0	0	96
HLD	44	0	2	96
TAP	44	144	0
TAP	44	144	2
HLD	44	192	0	96
HLD	44	192	2	96
TAP	45	0	7
TAP	45	96	7
TAP	45	192	7
STR	45	288	7
SCL	45	288	7	96	192	4
TAP	46	0	0
TAP	46	96	0
TAP	46	192	0
STR	46	288	0
SI_	46	288	0	96	192	4
TAP	47	0	7
TAP	47	96	7
TAP	47	192	7
STR	47	288	7
SI_	47	288	7	96	192	3
TAP	48	0	0
TAP	48	96	0
TAP	48	192	0
STR	48	288	0
SI_	48	288	0	96	192	5
TAP	49	0	6
TAP	49	96	6
TAP	49	192	6
STR	49	288	6
SI_	49	288	6	96	192	3
TAP	50	0	2
TAP	50	96	2
TAP	50	192	2
STR	50	288	2
SI_	50	288	2	96	192	5
TAP	51	0	4
TAP	51	96	4
TAP	51	192	4
STR	51	288	4
SI_	51	288	4	96	192	0
TAP	52	288	1
TAP	53	0	0
TAP	53	0	7
BRK	53	96	0
TAP	53	96	7
TAP	53	192	6
TAP	53	192	7
BRK	53	288	6
TAP	53	288	7
TAP	54	0	1
TAP	54	0	7
BRK	54	96	5
TAP	54	96	7
BRK	54	192	1
TAP	54	192	7
BRK	54	288	5
TAP	54	288	7
TAP	55	0	0
TAP	55	0	7
TAP	55	96	0
BRK	55	96	7
TAP	55	192	0
TAP	55	192	1
TAP	55	288	0
BRK	55	288	1
TAP	56	0	0
TAP	56	0	6
TAP	56	96	0
BRK	56	96	2
TAP	56	192	0
BRK	56	192	6
TAP	56	288	0
BRK	56	288	2
TAP	57	0	5
TAP	57	96	3
TAP	57	96	5
TAP	57	192	2
TAP	57	192	4
TAP	57	288	3
TAP	57	288	5
TAP	58	0	2
TAP	58	96	2
TAP	58	96	4
TAP	58	192	3
TAP	58	192	5
TAP	58	288	2
TAP	58	288	4
HLD	59	0	1	144
HLD	59	0	7	144
HLD	59	192	0	144
HLD	59	192	6	144
HLD	60	0	0	144
HLD	60	0	2	144
HLD	60	192	5	144
HLD	60	192	7	144
TAP	61	96	6
HLD	61	144	6	96
TAP	61	240	2
BRK	61	336	1
BRK	61	336	5
BRK	62	48	3
BRK	62	48	7
STR	62	144	2
SCR	62	144	2	96	144	5
STR	62	144	6
SI_	62	144	6	96	144	1
TAP	63	96	1
HLD	63	144	1	96
TAP	63	240	7
BRK	63	336	2
BRK	63	336	6
BRK	64	48	0
BRK	64	48	4
STR	64	144	2
SI_	64	144	2	96	144	5
STR	64	144	6
SCR	64	144	6	96	144	1
TAP	65	96	1
TAP	65	192	0
TAP	65	240	1
HLD	65	336	5	336
TAP	66	96	4
TAP	66	192	3
TAP	66	288	2
HLD	67	0	1	192
HLD	67	0	6	192
STR	67	240	0
SI_	67	240	0	96	192	4
STR	67	288	7
SI_	67	288	7	96	192	3
STR	68	288	5
SCR	68	288	5	96	192	0
STR	69	288	1
SCR	69	288	1	96	192	4
STR	70	288	5
SI_	70	288	5	96	192	1
STR	71	288	2
SI_	71	288	2	96	192	5
STR	72	96	6
SI_	72	96	6	96	192	1
STR	72	288	2
SCL	72	288	2	96	192	7
STR	73	288	6
SCL	73	288	6	96	192	3
STR	74	288	2
SI_	74	288	2	96	192	6
STR	75	288	7
SI_	75	288	7	96	192	4
STR	76	96	3
SI_	76	96	3	96	192	0

T_REC_TAP	248
T_REC_BRK	34
T_REC_XTP	0
T_REC_HLD	61
T_REC_XHO	0
T_REC_STR	26
T_REC_BST	0
T_REC_XST	0
T_REC_TTP	0
T_REC_THO	0
T_REC_SLD	26
T_REC_ALL	395
T_NUM_TAP	274
T_NUM_BRK	34
T_NUM_HLD	61
T_NUM_SLD	26
T_NUM_ALL	395
T_JUDGE_TAP	308
T_JUDGE_HLD	182
T_JUDGE_SLD	26
T_JUDGE_ALL	516
TTM_EACHPAIRS	124
TTM_SCR_TAP	137000
TTM_SCR_BRK	88400
TTM_SCR_HLD	61000
TTM_SCR_SLD	39000
TTM_SCR_ALL	325400
TTM_SCR_S	312350
TTM_SCR_SS	322000
TTM_RAT_ACV	10105

