VERSION	0.00.00	1.03.00
FES_MODE	0
BPM_DEF	203.000	203.000	203.000	203.000
MET_DEF	4	4
RESOLUTION	384
CLK_DEF	384
COMPATIBLE_CODE	MA2

BPM	0	0	203.000
MET	0	0	4	4

HLD	1	0	7	672
TAP	1	96	6
TAP	1	288	6
TAP	2	96	6
TAP	2	288	6
HLD	3	0	0	672
TAP	3	96	1
TAP	3	288	1
TAP	4	96	1
TAP	4	288	1
TAP	5	0	7
TAP	5	96	7
TAP	5	192	6
TAP	5	288	6
TAP	6	0	5
TAP	6	96	5
TAP	6	192	4
TAP	6	288	4
TAP	7	0	3
TAP	7	96	3
TAP	7	192	2
TAP	7	288	2
TAP	8	0	1
TAP	8	96	1
TAP	8	192	0
TAP	8	288	0
TAP	9	0	1
TAP	9	96	1
TAP	9	192	2
TAP	9	288	2
TAP	10	0	3
TAP	10	96	3
TAP	10	192	4
TAP	10	288	4
HLD	11	0	6	192
TAP	11	288	7
BRK	11	336	7
TAP	13	0	0
TAP	13	96	0
TAP	13	192	0
TAP	13	288	0
TAP	14	0	2
TAP	14	96	2
TAP	14	192	2
TAP	14	288	2
TAP	15	0	4
TAP	15	96	4
TAP	15	192	4
TAP	15	288	4
TAP	16	0	6
TAP	16	96	6
TAP	16	192	6
TAP	16	288	6
TAP	17	0	0
TAP	17	96	0
TAP	17	192	7
TAP	17	288	7
TAP	18	0	1
TAP	18	96	1
TAP	18	192	6
TAP	18	288	6
TAP	19	0	1
TAP	19	96	1
TAP	19	192	0
TAP	19	288	0
TAP	20	0	7
TAP	20	96	7
TAP	20	192	6
TAP	20	288	6
TAP	21	0	0
TAP	21	96	7
TAP	21	192	0
TAP	21	288	7
TAP	22	0	1
TAP	22	96	6
TAP	22	192	1
TAP	22	288	6
TAP	23	0	2
TAP	23	96	5
TAP	23	192	2
TAP	23	288	5
TAP	24	0	3
TAP	24	96	4
TAP	24	192	3
TAP	24	288	4
TAP	25	0	4
TAP	25	96	5
TAP	25	192	6
TAP	25	288	7
TAP	26	0	0
TAP	26	96	1
TAP	26	192	2
TAP	26	288	3
HLD	27	0	4	672
TAP	29	0	5
TAP	29	96	5
TAP	29	192	6
TAP	29	288	6
TAP	30	0	7
TAP	30	96	7
TAP	30	192	0
TAP	30	288	0
TAP	30	288	7
TAP	31	0	1
TAP	31	96	1
TAP	31	192	2
TAP	31	288	2
TAP	32	0	3
TAP	32	96	3
TAP	32	192	4
TAP	32	288	3
TAP	32	288	4
TAP	33	0	5
TAP	33	96	5
TAP	33	192	4
TAP	33	288	4
TAP	34	0	3
TAP	34	96	3
TAP	34	192	2
TAP	34	288	2
TAP	34	288	3
TAP	35	0	3
TAP	35	0	4
TAP	35	192	2
TAP	35	192	5
TAP	36	0	1
TAP	36	0	6
BRK	36	192	0
BRK	36	192	7
STR	37	0	0
SI_	37	0	0	96	192	3
STR	38	0	7
SI_	38	0	7	96	192	4
STR	39	0	1
SI_	39	0	1	96	192	4
STR	40	0	6
SI_	40	0	6	96	192	3
HLD	41	0	4	576
TAP	41	192	5
TAP	42	0	6
TAP	42	192	7
HLD	43	0	0	576
TAP	43	192	1
TAP	44	0	2
TAP	44	192	3
TAP	45	0	7
TAP	45	96	7
TAP	45	192	6
TAP	45	288	6
TAP	46	0	5
TAP	46	96	5
TAP	46	192	4
TAP	46	288	3
TAP	46	288	4
TAP	47	0	3
TAP	47	96	3
TAP	47	192	2
TAP	47	288	2
TAP	48	0	1
TAP	48	96	1
TAP	48	192	0
TAP	48	288	0
TAP	48	288	7
TAP	49	0	7
TAP	49	96	6
TAP	49	192	5
TAP	49	288	4
TAP	50	0	0
TAP	50	96	1
TAP	50	192	2
TAP	50	288	3
HLD	50	383	3	337
TAP	53	0	0
TAP	53	96	1
TAP	53	144	1
TAP	53	240	2
TAP	53	336	1
TAP	54	48	0
BRK	54	144	0
BRK	54	144	1
TAP	55	0	7
TAP	55	96	6
TAP	55	144	6
TAP	55	240	5
TAP	55	336	6
TAP	56	48	7
BRK	56	144	6
BRK	56	144	7
TAP	57	0	0
TAP	57	0	1
TAP	57	192	0
TAP	57	192	1
TAP	58	0	6
TAP	58	0	7
TAP	58	192	6
TAP	58	192	7
HLD	59	0	6	192
HLD	59	192	1	192
HLD	60	0	7	192
HLD	60	192	0	192
TAP	61	0	6
TAP	61	96	0
TAP	61	144	0
TAP	61	240	7
TAP	61	336	6
TAP	61	336	7
TAP	62	48	0
TAP	62	48	7
BRK	62	144	0
BRK	62	144	1
TAP	63	0	2
TAP	63	96	4
TAP	63	144	4
TAP	63	240	3
TAP	63	336	2
TAP	63	336	3
TAP	64	48	3
TAP	64	48	4
BRK	64	144	4
BRK	64	144	5
TAP	65	0	3
TAP	65	0	4
TAP	65	192	2
TAP	65	192	5
TAP	66	0	1
TAP	66	0	6
TAP	66	192	0
TAP	66	192	7
HLD	67	0	0	240
HLD	67	0	7	240
BRK	67	336	0
BRK	67	336	7
HLD	69	0	1	384
HLD	70	0	2	384
HLD	71	0	3	384
HLD	72	0	4	384
HLD	73	0	5	384
HLD	74	0	6	384
HLD	75	0	7	384
STR	76	0	0
SI_	76	0	0	96	288	3

T_REC_TAP	198
T_REC_BRK	13
T_REC_XTP	0
T_REC_HLD	20
T_REC_XHO	0
T_REC_STR	5
T_REC_BST	0
T_REC_XST	0
T_REC_TTP	0
T_REC_THO	0
T_REC_SLD	5
T_REC_ALL	241
T_NUM_TAP	203
T_NUM_BRK	13
T_NUM_HLD	20
T_NUM_SLD	5
T_NUM_ALL	241
T_JUDGE_TAP	216
T_JUDGE_HLD	160
T_JUDGE_SLD	5
T_JUDGE_ALL	381
TTM_EACHPAIRS	27
TTM_SCR_TAP	101500
TTM_SCR_BRK	33800
TTM_SCR_HLD	20000
TTM_SCR_SLD	7500
TTM_SCR_ALL	162800
TTM_SCR_S	156700
TTM_SCR_SS	161500
TTM_RAT_ACV	10080

