VERSION	0.00.00	1.03.00
FES_MODE	0
BPM_DEF	203.000	203.000	203.000	203.000
MET_DEF	4	4
RESOLUTION	384
CLK_DEF	384
COMPATIBLE_CODE	MA2

BPM	0	0	203.000
MET	0	0	4	4

TAP	5	0	3
TAP	5	192	2
TAP	6	0	1
TAP	6	192	0
STR	7	0	7
SI_	7	0	7	96	288	4
TAP	9	0	7
TAP	9	192	6
TAP	10	0	5
TAP	10	192	4
STR	11	0	3
SI_	11	0	3	96	288	0
TAP	13	96	7
TAP	13	288	7
TAP	14	96	6
TAP	14	288	6
TAP	15	96	7
TAP	15	288	0
TAP	16	96	7
TAP	16	288	0
TAP	17	96	1
TAP	17	288	1
TAP	18	96	2
TAP	18	288	2
TAP	19	96	2
TAP	19	96	5
TAP	19	288	2
TAP	19	288	5
TAP	20	96	3
TAP	20	96	4
TAP	20	288	3
TAP	20	288	4
TAP	21	96	5
TAP	21	288	5
TAP	22	96	6
TAP	22	288	6
HLD	23	96	7	192
HLD	24	96	0	192
TAP	25	96	1
TAP	25	288	1
TAP	26	96	2
TAP	26	288	2
TAP	27	96	1
TAP	27	288	0
TAP	28	96	7
TAP	28	288	6
HLD	29	96	7	384
HLD	31	96	0	384
HLD	33	96	1	384
HLD	35	0	0	192
BRK	36	0	7
STR	37	0	6
SI_	37	0	6	96	288	1
STR	39	0	2
SI_	39	0	2	96	288	5
STR	41	0	6
SI_	41	0	6	96	288	2
STR	43	0	1
SI_	43	0	1	96	288	5
HLD	45	0	6	192
HLD	46	0	7	192
HLD	47	0	0	576
HLD	49	0	1	192
HLD	50	0	2	192
TAP	51	0	1
TAP	51	192	1
TAP	52	0	0
TAP	52	192	0
HLD	53	0	7	240
TAP	53	336	0
TAP	54	48	0
TAP	54	144	0
HLD	55	0	0	240
TAP	55	336	1
TAP	56	48	1
TAP	56	144	1
HLD	57	0	2	384
HLD	58	0	3	192
TAP	59	0	2
TAP	59	192	1
TAP	60	0	0
TAP	60	192	0
TAP	60	192	7
HLD	61	0	1	240
TAP	61	336	0
TAP	62	48	0
TAP	62	144	0
HLD	63	0	7	240
TAP	63	336	6
TAP	64	48	6
TAP	64	144	6
HLD	65	0	5	192
HLD	66	0	4	192
HLD	67	0	5	192
HLD	68	0	6	192
STR	69	0	7
SI_	69	0	7	96	288	4

T_REC_TAP	61
T_REC_BRK	1
T_REC_XTP	0
T_REC_HLD	21
T_REC_XHO	0
T_REC_STR	7
T_REC_BST	0
T_REC_XST	0
T_REC_TTP	0
T_REC_THO	0
T_REC_SLD	7
T_REC_ALL	97
T_NUM_TAP	68
T_NUM_BRK	1
T_NUM_HLD	21
T_NUM_SLD	7
T_NUM_ALL	97
T_JUDGE_TAP	69
T_JUDGE_HLD	112
T_JUDGE_SLD	7
T_JUDGE_ALL	188
TTM_EACHPAIRS	5
TTM_SCR_TAP	34000
TTM_SCR_BRK	2600
TTM_SCR_HLD	21000
TTM_SCR_SLD	10500
TTM_SCR_ALL	68100
TTM_SCR_S	66000
TTM_SCR_SS	68000
TTM_RAT_ACV	10014

