VERSION	0.00.00	1.03.00
FES_MODE	0
BPM_DEF	152.000	152.000	152.000	152.000
MET_DEF	4	4
RESOLUTION	384
CLK_DEF	384
COMPATIBLE_CODE	MA2

BPM	0	0	152.000
MET	0	0	4	4

TAP	1	0	3
TAP	1	48	4
TAP	1	96	2
TAP	1	96	5
HLD	1	192	1	72
HLD	1	264	2	72
TAP	1	336	3
TAP	2	48	5
TAP	2	96	4
TAP	2	144	3
TAP	2	192	2
TAP	2	192	5
TAP	2	288	0
TAP	2	312	7
TAP	2	336	6
TAP	2	360	5
HLD	3	0	4	240
TAP	3	48	2
TAP	3	96	2
TAP	3	240	3
TAP	3	288	5
HLD	3	336	0	288
TAP	4	48	6
TAP	4	96	6
TAP	4	240	7
TAP	4	288	1
TAP	4	336	4
TAP	5	0	0
TAP	5	24	1
TAP	5	48	2
TAP	5	96	7
HLD	5	192	6	72
HLD	5	264	5	72
TAP	5	336	4
TAP	6	48	3
TAP	6	96	4
TAP	6	144	5
TAP	6	240	1
TAP	6	288	0
TAP	6	336	7
TAP	7	0	6
TAP	7	96	4
TAP	7	96	5
TAP	7	192	1
TAP	7	288	2
TAP	7	288	3
HLD	8	0	0	48
HLD	8	0	7	48
HLD	8	72	2	48
HLD	8	72	5	48
TAP	8	144	1
TAP	8	144	6
BRK	8	288	0
BRK	8	288	7
HLD	9	0	0	48
TAP	9	0	5
TAP	9	48	3
TAP	9	96	2
HLD	9	96	7	48
TAP	9	144	4
HLD	9	192	0	48
TAP	9	192	5
TAP	9	240	3
TAP	9	288	2
HLD	9	288	7	48
TAP	9	336	4
HLD	10	0	0	48
TAP	10	0	6
TAP	10	48	3
TAP	10	96	1
TAP	10	96	7
TAP	10	144	3
TAP	10	144	5
TAP	10	240	0
TAP	10	240	6
TAP	10	288	7
TAP	10	312	0
TAP	10	312	6
TAP	10	336	1
TAP	10	336	5
TAP	10	360	2
TAP	10	360	4
HLD	11	0	3	48
TAP	11	48	0
TAP	11	96	2
HLD	11	96	4	48
TAP	11	144	7
HLD	11	192	3	48
TAP	11	192	5
TAP	11	240	0
TAP	11	288	2
HLD	11	288	4	48
TAP	11	336	7
TAP	12	0	3
TAP	12	0	5
TAP	12	48	2
TAP	12	48	6
TAP	12	96	1
TAP	12	96	7
STR	12	144	0
SF_	12	144	0	96	48	4
TAP	13	0	2
HLD	13	0	7	48
TAP	13	48	4
HLD	13	96	0	48
TAP	13	96	5
TAP	13	144	3
TAP	13	192	2
HLD	13	192	7	48
TAP	13	240	4
HLD	13	288	0	48
TAP	13	288	5
TAP	13	336	3
TAP	14	0	1
HLD	14	0	7	48
TAP	14	48	4
TAP	14	96	0
TAP	14	96	6
TAP	14	144	2
TAP	14	144	4
TAP	14	240	1
TAP	14	240	7
TAP	14	288	0
TAP	14	312	1
TAP	14	312	7
TAP	14	336	2
TAP	14	336	6
TAP	14	360	3
TAP	14	360	5
HLD	15	0	4	48
TAP	15	48	7
HLD	15	96	3	48
TAP	15	96	5
TAP	15	144	0
TAP	15	192	2
HLD	15	192	4	48
TAP	15	240	7
HLD	15	288	3	48
TAP	15	288	5
TAP	15	336	0
TAP	16	0	2
TAP	16	0	4
TAP	16	48	1
TAP	16	48	5
TAP	16	96	0
TAP	16	96	6
STR	16	144	7
SF_	16	144	7	96	48	3
STR	17	0	1
SI_	17	0	1	96	24	4
TAP	17	48	0
STR	17	96	6
SI_	17	96	6	96	24	3
TAP	17	144	7
STR	17	192	1
SI_	17	192	1	96	24	4
TAP	17	240	0
STR	17	288	6
SI_	17	288	6	96	24	3
TAP	17	336	7
STR	18	0	1
SI_	18	0	1	96	24	4
TAP	18	48	0
TAP	18	96	6
TAP	18	144	7
TAP	18	240	1
TAP	18	288	0
TAP	18	336	7
STR	19	0	6
SI_	19	0	6	96	24	2
TAP	19	48	7
STR	19	96	0
SI_	19	96	0	96	24	4
TAP	19	144	7
STR	19	192	6
SI_	19	192	6	96	24	2
TAP	19	240	7
TAP	19	288	0
TAP	19	336	7
HLD	20	0	0	48
HLD	20	0	6	48
HLD	20	72	2	48
HLD	20	72	4	48
TAP	20	144	1
TAP	20	144	7
TAP	20	240	1
TAP	20	240	3
TAP	20	288	0
TAP	20	288	4
TAP	20	336	5
TAP	20	336	7
STR	21	0	6
SI_	21	0	6	96	24	3
TAP	21	48	7
STR	21	96	1
SI_	21	96	1	96	24	4
TAP	21	144	0
STR	21	192	6
SI_	21	192	6	96	24	3
TAP	21	240	7
STR	21	288	1
SI_	21	288	1	96	24	4
TAP	21	336	0
STR	22	0	6
SI_	22	0	6	96	24	3
TAP	22	48	7
TAP	22	96	1
TAP	22	144	0
TAP	22	240	6
TAP	22	288	7
TAP	22	336	0
STR	23	0	1
SI_	23	0	1	96	24	5
TAP	23	48	0
STR	23	96	7
SI_	23	96	7	96	24	3
TAP	23	144	0
STR	23	192	1
SI_	23	192	1	96	24	5
TAP	23	240	0
TAP	23	288	7
TAP	23	336	0
HLD	24	0	1	48
HLD	24	0	7	48
HLD	24	72	3	48
HLD	24	72	5	48
HLD	24	144	2	96
HLD	24	144	6	96
TAP	24	288	0
TAP	24	312	7
TAP	24	336	0
TAP	24	360	7
STR	25	0	1
SCR	25	0	1	96	24	4
TAP	25	48	0
STR	25	96	6
SCL	25	96	6	96	24	3
TAP	25	144	7
STR	25	192	1
SCR	25	192	1	96	24	4
TAP	25	240	0
STR	25	288	6
SCL	25	288	6	96	24	3
TAP	25	336	7
STR	26	0	1
SCR	26	0	1	96	24	4
TAP	26	48	0
TAP	26	96	6
TAP	26	144	7
HLD	26	240	5	48
HLD	26	288	3	48
HLD	26	336	7	48
STR	27	0	1
SCR	27	0	1	96	24	4
TAP	27	48	0
STR	27	96	7
SCL	27	96	7	96	24	4
TAP	27	144	0
STR	27	192	1
SCR	27	192	1	96	24	4
TAP	27	240	0
TAP	27	288	7
TAP	27	336	0
HLD	28	0	1	48
HLD	28	0	7	48
HLD	28	72	3	48
HLD	28	72	4	48
TAP	28	144	0
TAP	28	144	6
TAP	28	240	1
TAP	28	240	3
TAP	28	288	0
TAP	28	288	4
TAP	28	336	5
TAP	28	336	7
STR	29	0	6
SCL	29	0	6	96	24	3
TAP	29	48	7
STR	29	96	1
SCR	29	96	1	96	24	4
TAP	29	144	0
STR	29	192	6
SCL	29	192	6	96	24	3
TAP	29	240	7
STR	29	288	1
SCR	29	288	1	96	24	4
TAP	29	336	0
STR	30	0	6
SCL	30	0	6	96	24	3
TAP	30	48	7
TAP	30	96	1
TAP	30	144	0
HLD	30	240	2	48
HLD	30	288	4	48
HLD	30	336	0	48
STR	31	0	6
SCL	31	0	6	96	24	3
TAP	31	48	7
STR	31	96	0
SCR	31	96	0	96	24	3
TAP	31	144	7
STR	31	192	6
SCL	31	192	6	96	24	3
TAP	31	240	7
TAP	31	288	0
TAP	31	336	7
HLD	32	0	0	48
HLD	32	0	6	48
HLD	32	72	3	48
HLD	32	72	4	48
HLD	32	144	1	144
TAP	32	144	7
BRK	32	288	6
STR	33	0	5
SCR	33	0	5	96	120	1
TAP	33	48	2
STR	33	96	0
SCR	33	96	0	96	96	4
HLD	33	144	0	144
STR	34	0	2
SCL	34	0	2	96	120	6
TAP	34	48	5
STR	34	96	7
SCL	34	96	7	96	96	3
HLD	34	144	7	144
STR	35	0	6
SCL	35	0	6	96	120	2
TAP	35	48	1
STR	35	96	3
SCL	35	96	3	96	96	7
HLD	35	144	3	144
STR	36	0	1
SCR	36	0	1	96	120	5
TAP	36	48	6
STR	36	96	4
SCR	36	96	4	96	96	0
HLD	36	144	4	144
STR	37	0	7
SCL	37	0	7	96	120	2
TAP	37	48	1
STR	37	96	3
SCL	37	96	3	96	96	7
HLD	37	144	3	144
STR	38	0	0
SCR	38	0	0	96	120	5
TAP	38	48	6
STR	38	96	4
SCR	38	96	4	96	96	0
HLD	38	144	4	144
HLD	39	0	3	72
TAP	39	0	4
HLD	39	72	2	72
TAP	39	144	1
HLD	39	192	4	72
HLD	39	264	5	72
TAP	39	336	6
HLD	40	0	2	72
HLD	40	72	1	72
TAP	40	144	0
HLD	40	192	5	72
HLD	40	264	6	72
TAP	40	336	7
BST	41	0	0
SI_	41	0	0	96	48	4
BST	41	96	0
SCL	41	96	0	96	48	5
SCR	41	96	0	96	48	3
BST	41	192	0
SF_	41	192	0	96	48	4
BRK	41	288	0
HLD	42	0	7	72
TAP	42	72	6
HLD	42	96	6	72
TAP	42	168	5
HLD	42	192	5	72
TAP	42	264	4
HLD	42	288	4	72
TAP	42	360	3
HLD	43	0	3	72
TAP	43	72	2
HLD	43	96	2	72
TAP	43	168	1
HLD	43	192	1	72
TAP	43	264	0
HLD	43	288	0	72
TAP	43	360	7
HLD	44	0	7	72
TAP	44	72	5
HLD	44	96	5	72
TAP	44	168	3
HLD	44	192	3	72
TAP	44	264	1
HLD	44	288	1	72
TAP	44	360	3
HLD	45	0	3	72
TAP	45	72	5
HLD	45	96	5	72
TAP	45	168	7
HLD	45	192	7	72
TAP	45	264	1
BRK	45	288	1
STR	46	0	6
SCL	46	0	6	96	48	3
STR	46	192	1
SCR	46	192	1	96	48	4
STR	47	0	7
SXL	47	0	7	96	48	1
SXR	47	0	7	96	48	5
TAP	47	240	1
TAP	47	288	0
TAP	47	336	7
TAP	48	0	6
TAP	48	96	4
TAP	48	96	5
TAP	48	192	1
TAP	48	288	2
TAP	48	288	3
HLD	49	0	6	72
HLD	49	72	5	72
TAP	49	144	4
TAP	49	240	6
TAP	49	288	7
TAP	49	336	0
STR	50	0	1
SCR	50	0	1	96	48	4
STR	50	192	6
SCL	50	192	6	96	48	3
STR	51	0	0
SXL	51	0	0	96	48	2
SXR	51	0	0	96	48	6
TAP	51	240	6
TAP	51	288	7
TAP	51	336	0
TAP	52	0	1
TAP	52	96	2
TAP	52	96	3
TAP	52	192	6
TAP	52	288	4
TAP	52	288	5
HLD	53	0	1	72
HLD	53	72	2	72
TAP	53	144	3
BRK	53	240	0
BRK	53	240	7
TAP	53	288	1
TAP	53	312	6
TAP	53	336	1
TAP	53	360	6
HLD	54	0	0	96
TAP	54	48	7
HLD	54	96	4	96
TAP	54	144	3
HLD	54	192	1	96
TAP	54	240	0
HLD	54	288	5	96
TAP	54	336	4
HLD	55	0	2	96
TAP	55	48	1
TAP	55	96	5
TAP	55	144	5
TAP	55	144	6
TAP	55	240	2
STR	55	288	6
SI_	55	288	6	96	24	1
TAP	55	336	7
STR	56	0	2
SI_	56	0	2	96	24	5
TAP	56	48	3
STR	56	96	6
SI_	56	96	6	96	24	1
TAP	56	144	7
STR	56	192	2
SI_	56	192	2	96	24	5
TAP	56	240	3
TAP	56	288	6
TAP	56	336	7
HLD	57	0	0	48
HLD	57	0	2	48
HLD	57	72	3	48
HLD	57	72	4	48
BRK	57	144	5
BRK	57	144	7
TAP	57	240	3
TAP	57	240	4
TAP	57	288	2
TAP	57	288	5
TAP	57	336	1
TAP	57	336	6
HLD	58	0	7	96
TAP	58	48	0
HLD	58	96	3	96
TAP	58	144	4
HLD	58	192	6	96
TAP	58	240	7
HLD	58	288	2	96
TAP	58	336	3
HLD	59	0	5	96
TAP	59	48	6
TAP	59	96	2
TAP	59	144	1
TAP	59	144	2
TAP	59	240	5
STR	59	288	1
SI_	59	288	1	96	24	6
TAP	59	336	0
STR	60	0	5
SI_	60	0	5	96	24	2
TAP	60	48	4
STR	60	96	1
SI_	60	96	1	96	24	6
TAP	60	144	0
STR	60	192	5
SI_	60	192	5	96	24	2
TAP	60	240	4
TAP	60	288	1
TAP	60	336	0
HLD	61	0	5	48
HLD	61	0	7	48
HLD	61	72	3	48
HLD	61	72	4	48
BRK	61	144	0
HLD	61	144	2	96
TAP	61	240	7
TAP	61	256	6
TAP	61	272	5
BRK	61	288	4
STR	62	0	2
SI_	62	0	2	96	24	7
TAP	62	0	6
TAP	62	48	0
STR	62	96	6
SI_	62	96	6	96	24	3
TAP	62	144	4
STR	62	192	2
SI_	62	192	2	96	24	7
TAP	62	240	0
STR	62	288	6
SI_	62	288	6	96	24	3
TAP	62	336	4
STR	63	0	2
SI_	63	0	2	96	24	7
TAP	63	48	0
TAP	63	96	6
TAP	63	144	4
TAP	63	240	4
TAP	63	264	3
TAP	63	288	2
TAP	63	312	1
TAP	63	336	0
TAP	63	360	7
HLD	64	0	0	48
TAP	64	0	6
TAP	64	48	3
TAP	64	96	1
HLD	64	96	7	48
TAP	64	144	4
HLD	64	192	0	48
TAP	64	192	6
TAP	64	240	3
TAP	64	288	1
HLD	64	288	7	48
TAP	64	336	4
TAP	65	0	3
TAP	65	0	5
TAP	65	48	2
TAP	65	48	6
TAP	65	96	1
TAP	65	96	7
STR	65	144	0
SF_	65	144	0	96	48	4
TAP	66	0	1
STR	66	0	5
SI_	66	0	5	96	24	0
TAP	66	48	7
STR	66	96	1
SI_	66	96	1	96	24	4
TAP	66	144	3
STR	66	192	5
SI_	66	192	5	96	24	0
TAP	66	240	7
STR	66	288	1
SI_	66	288	1	96	24	4
TAP	66	336	3
STR	67	0	5
SI_	67	0	5	96	24	0
TAP	67	48	7
TAP	67	96	1
TAP	67	144	3
TAP	67	240	3
TAP	67	264	4
TAP	67	288	5
TAP	67	312	6
TAP	67	336	7
TAP	67	360	0
TAP	68	0	1
HLD	68	0	7	48
TAP	68	48	4
HLD	68	96	0	48
TAP	68	96	6
TAP	68	144	3
TAP	68	192	1
HLD	68	192	7	48
TAP	68	240	4
HLD	68	288	0	48
TAP	68	288	6
TAP	68	336	3
TAP	69	0	2
TAP	69	0	4
TAP	69	48	1
TAP	69	48	5
TAP	69	96	0
TAP	69	96	6
STR	69	144	7
SF_	69	144	7	96	48	3
TAP	70	0	3
TAP	70	0	4
HLD	70	96	2	96
HLD	70	192	0	96
HLD	70	288	7	96
TAP	71	0	5
TAP	71	48	7
TAP	71	96	0
BRK	71	144	2

T_REC_TAP	342
T_REC_BRK	12
T_REC_XTP	0
T_REC_HLD	116
T_REC_XHO	0
T_REC_STR	72
T_REC_BST	3
T_REC_XST	0
T_REC_TTP	0
T_REC_THO	0
T_REC_SLD	78
T_REC_ALL	623
T_NUM_TAP	414
T_NUM_BRK	15
T_NUM_HLD	116
T_NUM_SLD	78
T_NUM_ALL	623
T_JUDGE_TAP	429
T_JUDGE_HLD	186
T_JUDGE_SLD	78
T_JUDGE_ALL	693
TTM_EACHPAIRS	94
TTM_SCR_TAP	207000
TTM_SCR_BRK	39000
TTM_SCR_HLD	116000
TTM_SCR_SLD	117000
TTM_SCR_ALL	479000
TTM_SCR_S	463200
TTM_SCR_SS	477500
TTM_RAT_ACV	10031

