VERSION	0.00.00	1.03.00
FES_MODE	0
BPM_DEF	152.000	152.000	152.000	152.000
MET_DEF	4	4
RESOLUTION	384
CLK_DEF	384
COMPATIBLE_CODE	MA2

BPM	0	0	152.000
MET	0	0	4	4

TAP	1	0	1
TAP	1	48	0
TAP	1	96	0
TAP	1	192	7
TAP	1	264	7
TAP	1	336	7
TAP	2	0	7
TAP	2	48	6
TAP	2	96	6
TAP	2	192	5
TAP	2	264	5
TAP	2	336	5
HLD	3	0	2	192
TAP	3	48	1
TAP	3	96	1
TAP	3	192	0
TAP	3	264	7
TAP	3	336	6
HLD	4	0	5	192
TAP	4	48	4
TAP	4	96	4
TAP	4	192	3
TAP	4	264	2
TAP	4	336	1
HLD	5	0	7	192
TAP	5	48	0
TAP	5	96	0
TAP	5	192	1
TAP	5	240	2
TAP	5	264	1
TAP	5	312	4
TAP	5	336	3
HLD	6	0	5	192
TAP	6	48	6
TAP	6	96	6
TAP	6	192	4
TAP	6	240	3
TAP	6	264	4
TAP	6	312	1
TAP	6	336	2
HLD	7	0	0	192
TAP	7	48	7
TAP	7	96	7
TAP	7	192	6
TAP	7	240	5
TAP	7	264	6
TAP	7	312	3
TAP	7	336	4
TAP	8	0	2
TAP	8	48	1
TAP	8	72	0
TAP	8	96	1
TAP	8	144	7
TAP	8	168	6
TAP	8	192	7
TAP	8	240	5
TAP	8	264	4
TAP	8	288	5
TAP	8	336	2
HLD	9	0	1	96
TAP	9	0	7
TAP	9	48	6
HLD	9	96	5	96
TAP	9	144	1
HLD	9	192	2	96
TAP	9	240	6
HLD	9	288	7	96
TAP	9	336	0
HLD	10	0	1	96
TAP	10	48	6
HLD	10	96	5	96
TAP	10	144	2
HLD	10	192	3	96
TAP	10	240	4
HLD	10	288	5	96
TAP	10	336	2
TAP	11	0	1
TAP	11	48	5
TAP	11	96	3
TAP	11	96	7
TAP	11	192	2
TAP	11	240	6
TAP	11	288	0
TAP	11	288	4
TAP	12	0	6
TAP	12	48	1
TAP	12	96	0
TAP	12	96	7
TAP	12	144	1
TAP	12	144	6
HLD	13	0	1	96
TAP	13	0	7
TAP	13	48	6
HLD	13	96	5	96
TAP	13	144	1
HLD	13	192	2	96
TAP	13	240	6
HLD	13	288	7	96
TAP	13	336	0
HLD	14	0	1	96
TAP	14	48	6
HLD	14	96	5	96
TAP	14	144	2
HLD	14	192	3	96
TAP	14	240	4
HLD	14	288	5	96
TAP	14	336	2
TAP	15	0	1
TAP	15	48	5
TAP	15	96	3
TAP	15	96	7
TAP	15	192	2
TAP	15	240	6
TAP	15	288	0
TAP	15	288	4
TAP	16	0	6
TAP	16	48	1
TAP	16	96	0
TAP	16	96	7
TAP	16	144	1
TAP	16	144	6
STR	17	0	1
SI_	17	0	1	96	48	6
STR	17	96	5
SI_	17	96	5	96	48	2
STR	17	192	1
SI_	17	192	1	96	48	6
STR	17	288	5
SI_	17	288	5	96	48	2
STR	18	0	1
SI_	18	0	1	96	48	6
STR	18	96	7
SI_	18	96	7	96	48	4
STR	18	192	3
SI_	18	192	3	96	48	0
HLD	19	0	7	96
HLD	19	96	1	96
HLD	19	192	5	96
HLD	19	288	3	96
HLD	20	0	4	96
HLD	20	96	2	96
HLD	20	192	6	96
HLD	20	288	0	96
STR	21	0	7
SI_	21	0	7	96	48	2
STR	21	96	0
SI_	21	96	0	96	48	5
STR	21	192	6
SI_	21	192	6	96	48	3
STR	21	288	1
SI_	21	288	1	96	48	4
STR	22	0	5
SCR	22	0	5	96	48	0
STR	22	96	1
SCR	22	96	1	96	48	4
STR	22	192	5
SI_	22	192	5	96	48	1
HLD	23	0	3	96
HLD	23	96	4	96
HLD	23	192	5	96
BRK	23	288	6
TAP	24	0	0
TAP	24	0	7
TAP	24	96	2
TAP	24	96	5
TAP	24	144	2
TAP	24	144	5
TAP	25	0	1
HLD	25	0	6	96
HLD	25	96	5	96
HLD	25	192	4	96
TAP	25	288	3
HLD	26	0	2	96
TAP	26	0	5
HLD	26	96	3	96
HLD	26	192	4	96
TAP	26	288	5
HLD	27	0	6	96
TAP	27	0	7
TAP	27	48	0
TAP	27	96	1
HLD	27	192	2	96
TAP	27	192	3
TAP	27	240	4
TAP	27	288	4
TAP	28	0	6
HLD	28	0	7	96
TAP	28	48	5
TAP	28	96	4
TAP	28	192	2
HLD	28	192	3	96
TAP	28	240	1
TAP	28	288	0
TAP	29	0	6
TAP	29	0	7
TAP	29	96	0
TAP	29	96	1
TAP	29	192	6
TAP	29	192	7
TAP	29	288	0
TAP	29	288	1
TAP	30	0	5
TAP	30	0	7
TAP	30	96	0
TAP	30	96	2
TAP	30	192	3
TAP	30	192	5
TAP	30	288	2
TAP	30	288	4
HLD	31	0	6	96
TAP	31	0	7
TAP	31	48	0
TAP	31	96	1
HLD	31	192	2	96
TAP	31	192	3
TAP	31	240	4
TAP	31	288	4
TAP	32	0	6
HLD	32	0	7	96
TAP	32	48	5
TAP	32	96	4
TAP	32	192	2
HLD	32	192	3	96
TAP	32	240	1
TAP	32	288	0
TAP	33	0	7
TAP	33	48	5
TAP	33	96	3
HLD	33	144	1	144
TAP	34	0	2
TAP	34	48	4
TAP	34	96	6
HLD	34	144	0	144
TAP	35	0	7
TAP	35	48	5
TAP	35	96	3
HLD	35	144	1	144
TAP	36	0	2
TAP	36	48	3
TAP	36	96	4
HLD	36	144	5	144
TAP	37	0	6
TAP	37	0	7
TAP	37	48	0
TAP	37	96	1
TAP	37	144	2
HLD	37	144	3	144
BRK	37	288	7
TAP	38	0	5
TAP	38	0	6
TAP	38	48	4
TAP	38	96	3
HLD	38	144	1	144
TAP	38	144	2
BRK	38	288	0
TAP	39	0	1
HLD	39	0	6	72
HLD	39	72	5	72
TAP	39	144	4
HLD	39	192	1	72
TAP	39	192	6
HLD	39	264	2	72
TAP	39	336	3
TAP	40	0	1
HLD	40	0	6	72
HLD	40	72	7	72
TAP	40	144	0
TAP	40	192	0
TAP	40	192	7
TAP	40	264	2
TAP	40	264	5
TAP	40	336	3
TAP	40	336	4
STR	41	0	2
SI_	41	0	2	96	48	6
STR	41	96	5
SI_	41	96	5	96	48	1
STR	41	192	3
SI_	41	192	3	96	48	7
TAP	42	0	7
TAP	42	96	7
TAP	42	192	6
TAP	42	288	6
TAP	43	0	5
TAP	43	96	5
TAP	43	192	4
TAP	43	288	4
TAP	44	0	3
TAP	44	96	0
TAP	44	192	5
TAP	44	288	2
TAP	45	0	7
TAP	45	96	4
TAP	45	192	1
BRK	45	288	6
STR	46	0	5
SI_	46	0	5	96	48	0
HLD	46	0	7	288
STR	46	192	1
SCR	46	192	1	96	48	4
HLD	47	0	5	96
TAP	47	144	2
TAP	47	144	5
TAP	47	240	3
TAP	47	288	2
TAP	47	336	1
TAP	48	0	0
TAP	48	0	7
TAP	48	96	5
TAP	48	96	6
TAP	48	192	3
TAP	48	192	4
TAP	48	288	1
TAP	48	288	2
TAP	49	0	0
TAP	49	0	7
TAP	49	96	6
TAP	49	144	6
TAP	49	240	7
TAP	49	288	0
TAP	49	336	1
HLD	50	0	0	288
STR	50	0	2
SI_	50	0	2	96	48	7
STR	50	192	6
SCL	50	192	6	96	48	3
HLD	51	0	2	96
TAP	51	144	2
TAP	51	144	5
TAP	51	240	4
TAP	51	288	5
TAP	51	336	6
TAP	52	0	0
TAP	52	0	7
TAP	52	96	1
TAP	52	96	2
TAP	52	192	3
TAP	52	192	4
TAP	52	288	5
TAP	52	288	6
TAP	53	0	0
TAP	53	0	7
TAP	53	96	1
BRK	53	144	1
TAP	54	0	6
TAP	54	0	7
TAP	54	48	5
TAP	54	96	5
TAP	54	192	0
TAP	54	216	1
HLD	54	264	1	73
TAP	54	336	0
TAP	55	0	7
TAP	55	48	7
HLD	55	96	6	96
TAP	55	192	5
TAP	55	216	4
TAP	55	264	4
TAP	55	336	4
TAP	56	0	5
TAP	56	48	6
BRK	56	96	6
TAP	56	192	7
TAP	56	216	0
HLD	56	264	0	72
TAP	56	336	1
TAP	57	0	2
TAP	57	48	3
HLD	57	96	3	96
TAP	57	192	2
TAP	57	216	1
TAP	57	264	1
TAP	57	336	0
TAP	58	0	0
TAP	58	0	1
TAP	58	48	2
TAP	58	96	2
TAP	58	192	7
TAP	58	216	6
HLD	58	264	6	73
TAP	58	336	7
TAP	59	0	0
TAP	59	48	0
HLD	59	96	1	96
TAP	59	192	2
TAP	59	216	3
TAP	59	264	3
TAP	59	336	3
TAP	60	0	2
TAP	60	48	1
TAP	60	96	1
TAP	60	192	0
TAP	60	216	7
HLD	60	264	7	72
TAP	60	336	6
TAP	61	0	5
TAP	61	48	4
HLD	61	96	4	96
TAP	61	192	3
TAP	61	264	2
TAP	61	336	2
TAP	62	0	2
HLD	62	0	6	192
TAP	62	96	5
TAP	62	192	7
TAP	62	240	0
TAP	62	288	1
HLD	62	336	2	240
TAP	63	192	1
TAP	63	240	0
TAP	63	264	7
TAP	63	288	6
TAP	63	312	5
TAP	63	336	4
TAP	64	0	1
TAP	64	24	2
HLD	64	48	3	240
HLD	64	288	4	96
TAP	65	0	5
TAP	65	48	6
TAP	65	96	1
TAP	65	96	7
TAP	65	144	0
TAP	65	144	2
HLD	66	0	1	192
TAP	66	0	5
TAP	66	96	2
TAP	66	192	0
TAP	66	240	7
TAP	66	288	6
HLD	66	336	5	240
TAP	67	192	6
TAP	67	240	7
TAP	67	264	0
TAP	67	288	1
TAP	67	312	2
TAP	67	336	3
TAP	68	0	6
TAP	68	24	5
HLD	68	48	4	240
HLD	68	288	3	96
TAP	69	0	2
TAP	69	48	1
TAP	69	96	0
TAP	69	96	6
TAP	69	144	5
TAP	69	144	7
HLD	70	0	0	96
TAP	70	0	7
HLD	70	96	6	96
HLD	70	192	2	96
TAP	70	288	4
TAP	71	0	3
TAP	71	0	4
TAP	71	48	2
TAP	71	96	1
BRK	71	144	0

T_REC_TAP	327
T_REC_BRK	7
T_REC_XTP	0
T_REC_HLD	81
T_REC_XHO	0
T_REC_STR	21
T_REC_BST	0
T_REC_XST	0
T_REC_TTP	0
T_REC_THO	0
T_REC_SLD	21
T_REC_ALL	457
T_NUM_TAP	348
T_NUM_BRK	7
T_NUM_HLD	81
T_NUM_SLD	21
T_NUM_ALL	457
T_JUDGE_TAP	355
T_JUDGE_HLD	202
T_JUDGE_SLD	21
T_JUDGE_ALL	578
TTM_EACHPAIRS	65
TTM_SCR_TAP	174000
TTM_SCR_BRK	18200
TTM_SCR_HLD	81000
TTM_SCR_SLD	31500
TTM_SCR_ALL	304700
TTM_SCR_S	294900
TTM_SCR_SS	304000
TTM_RAT_ACV	10023

