VERSION	0.00.00	1.03.00
FES_MODE	0
BPM_DEF	152.000	152.000	152.000	152.000
MET_DEF	4	4
RESOLUTION	384
CLK_DEF	384
COMPATIBLE_CODE	MA2

BPM	0	0	152.000
MET	0	0	4	4

TAP	1	0	7
TAP	1	96	7
TAP	1	192	2
TAP	1	288	2
TAP	2	0	0
TAP	2	96	0
TAP	2	192	5
TAP	2	288	5
TAP	3	0	6
TAP	3	96	6
TAP	3	192	3
TAP	3	288	3
TAP	4	0	1
TAP	4	96	1
TAP	4	192	4
TAP	4	288	3
TAP	4	288	4
TAP	5	0	1
TAP	5	48	1
TAP	5	96	0
TAP	5	96	1
TAP	5	192	3
TAP	5	192	4
TAP	5	288	3
TAP	5	288	4
TAP	6	0	6
TAP	6	48	6
TAP	6	96	6
TAP	6	96	7
TAP	6	192	3
TAP	6	192	4
TAP	6	288	3
TAP	6	288	4
TAP	7	0	2
TAP	7	96	0
TAP	7	96	1
TAP	7	192	6
TAP	7	192	7
TAP	7	288	5
TAP	8	0	1
TAP	8	72	3
STR	8	144	5
SI_	8	144	5	96	96	2
TAP	9	0	3
TAP	9	48	1
TAP	9	96	3
TAP	9	192	4
TAP	9	240	6
TAP	9	288	4
TAP	10	0	3
TAP	10	48	1
TAP	10	96	3
TAP	10	192	4
TAP	10	240	6
TAP	10	288	1
TAP	10	336	3
TAP	11	0	4
TAP	11	48	6
TAP	11	96	4
TAP	11	192	3
TAP	11	240	1
TAP	11	288	3
TAP	12	0	4
TAP	12	48	5
TAP	12	96	2
HLD	12	144	3	144
TAP	12	288	7
TAP	13	0	5
TAP	13	48	7
TAP	13	96	5
TAP	13	192	2
TAP	13	240	0
TAP	13	288	2
TAP	14	0	5
TAP	14	48	7
TAP	14	96	5
TAP	14	192	2
TAP	14	240	0
TAP	14	288	7
TAP	14	336	5
TAP	15	0	2
TAP	15	48	0
TAP	15	96	2
TAP	15	192	5
TAP	15	240	7
TAP	15	288	5
TAP	16	0	2
TAP	16	48	0
TAP	16	96	7
HLD	16	144	5	144
HLD	17	0	1	192
TAP	17	96	2
HLD	17	192	2	192
TAP	17	288	3
HLD	18	0	3	144
TAP	18	96	4
HLD	18	144	4	96
TAP	18	240	3
TAP	18	288	2
TAP	18	336	1
HLD	19	0	0	192
TAP	19	96	7
HLD	19	192	1	192
TAP	19	288	2
HLD	20	0	0	288
STR	20	72	7
SCL	20	72	7	96	120	4
HLD	21	0	6	192
TAP	21	96	5
HLD	21	192	5	192
TAP	21	288	4
HLD	22	0	4	144
TAP	22	96	3
HLD	22	144	3	96
TAP	22	240	4
TAP	22	288	5
TAP	22	336	6
HLD	23	0	7	192
TAP	23	96	0
HLD	23	192	6	192
TAP	23	288	5
HLD	24	0	7	288
STR	24	72	0
SCR	24	72	0	96	120	3
TAP	25	0	1
TAP	25	0	7
TAP	25	48	0
TAP	25	96	1
TAP	25	96	7
HLD	25	192	0	96
TAP	25	192	4
TAP	25	288	4
TAP	26	0	0
TAP	26	0	6
TAP	26	48	7
TAP	26	96	0
TAP	26	96	6
TAP	26	192	3
HLD	26	192	7	96
TAP	26	288	3
TAP	27	0	1
TAP	27	0	7
TAP	27	48	0
TAP	27	96	1
TAP	27	96	7
TAP	27	192	0
TAP	27	192	6
TAP	27	240	7
TAP	27	288	0
TAP	27	288	6
STR	28	0	7
SI_	28	0	7	96	96	3
STR	28	144	0
SI_	28	144	0	96	96	4
TAP	29	0	6
TAP	29	48	0
TAP	29	96	1
TAP	29	144	0
TAP	29	192	7
TAP	29	240	0
TAP	29	288	2
TAP	29	336	0
TAP	30	0	1
TAP	30	48	7
TAP	30	96	6
TAP	30	144	7
TAP	30	192	0
TAP	30	240	7
TAP	30	288	5
TAP	30	336	7
HLD	31	0	6	96
HLD	31	96	0	96
HLD	31	192	7	96
HLD	31	288	1	96
STR	32	0	2
SI_	32	0	2	96	96	7
STR	32	144	6
SI_	32	144	6	96	96	3
TAP	33	0	7
TAP	33	48	0
HLD	33	96	1	192
HLD	33	144	2	144
TAP	34	0	0
TAP	34	48	7
HLD	34	96	6	192
HLD	34	144	5	144
TAP	35	0	0
TAP	35	48	1
HLD	35	96	2	144
HLD	35	144	3	144
TAP	35	288	2
TAP	36	0	7
TAP	36	48	6
HLD	36	96	5	144
HLD	36	144	4	144
TAP	36	288	5
TAP	37	0	1
TAP	37	48	2
HLD	37	96	3	96
HLD	37	144	4	96
TAP	37	240	3
TAP	37	288	4
TAP	38	0	6
TAP	38	48	5
HLD	38	96	4	96
HLD	38	144	3	96
TAP	38	240	4
TAP	38	288	3
HLD	39	0	2	144
TAP	39	72	3
TAP	39	144	4
HLD	39	192	5	144
TAP	39	264	4
TAP	39	336	3
HLD	40	0	1	144
TAP	40	72	2
TAP	40	144	3
HLD	40	192	6	144
TAP	40	264	5
TAP	40	336	4
HLD	41	0	0	96
TAP	41	0	1
TAP	41	96	7
TAP	41	192	6
HLD	41	192	7	96
TAP	41	288	0
TAP	42	0	7
TAP	42	72	7
TAP	42	96	0
TAP	42	168	0
TAP	42	192	7
TAP	42	264	7
TAP	42	288	0
TAP	42	360	0
TAP	43	0	7
TAP	43	72	7
TAP	43	96	0
TAP	43	168	0
TAP	43	192	7
TAP	43	264	7
TAP	43	288	0
TAP	43	360	0
TAP	44	0	6
TAP	44	72	6
TAP	44	96	0
TAP	44	168	0
TAP	44	192	7
TAP	44	264	7
TAP	44	288	1
TAP	44	360	1
TAP	45	0	0
TAP	45	72	0
TAP	45	96	7
TAP	45	168	7
HLD	45	192	6	96
HLD	46	0	7	96
HLD	46	96	6	96
HLD	46	192	5	96
HLD	46	288	4	96
HLD	47	0	0	96
HLD	47	96	1	96
HLD	47	192	2	96
HLD	47	288	3	96
HLD	48	0	5	96
HLD	48	96	7	96
HLD	48	192	1	96
HLD	48	288	3	96
HLD	49	0	6	72
HLD	49	72	4	72
HLD	49	144	2	96
TAP	49	240	5
TAP	49	288	6
TAP	49	336	7
HLD	50	0	0	96
HLD	50	96	1	96
HLD	50	192	2	96
HLD	50	288	3	96
HLD	51	0	7	96
HLD	51	96	6	96
HLD	51	192	5	96
HLD	51	288	4	96
HLD	52	0	2	96
HLD	52	96	0	96
HLD	52	192	6	96
HLD	52	288	4	96
HLD	53	0	1	72
HLD	53	72	3	72
BRK	53	144	5
TAP	54	0	4
TAP	54	48	3
TAP	54	96	3
TAP	54	96	4
TAP	54	192	4
TAP	54	192	5
TAP	54	264	5
TAP	54	288	4
TAP	55	0	3
TAP	55	48	4
TAP	55	96	3
TAP	55	96	4
TAP	55	192	2
TAP	55	192	3
TAP	55	264	2
TAP	55	288	3
HLD	56	0	0	192
TAP	56	96	1
HLD	56	192	4	192
TAP	56	288	5
HLD	57	0	0	288
STR	57	72	1
SI_	57	72	1	96	120	6
TAP	58	0	2
TAP	58	48	1
TAP	58	96	1
TAP	58	96	2
TAP	58	192	3
TAP	58	192	4
TAP	58	264	4
TAP	58	288	3
TAP	59	0	5
TAP	59	48	6
TAP	59	96	5
TAP	59	96	6
TAP	59	192	3
TAP	59	192	4
TAP	59	264	3
TAP	59	288	4
HLD	60	0	7	192
TAP	60	96	6
HLD	60	192	3	192
TAP	60	288	2
HLD	61	0	7	288
STR	61	72	6
SI_	61	72	6	96	120	1
HLD	62	0	0	336
TAP	62	0	6
TAP	62	96	6
TAP	62	192	2
TAP	62	288	2
TAP	63	0	1
HLD	63	0	7	336
TAP	63	96	1
TAP	63	192	5
TAP	63	288	5
HLD	64	0	0	144
TAP	64	0	6
TAP	64	96	2
TAP	64	192	1
HLD	64	192	7	144
TAP	64	288	5
HLD	65	0	0	288
TAP	65	0	6
STR	65	72	1
SI_	65	72	1	96	120	4
TAP	66	0	1
HLD	66	0	7	336
TAP	66	96	5
TAP	66	192	1
TAP	66	288	5
HLD	67	0	0	336
TAP	67	0	6
TAP	67	96	2
TAP	67	192	6
TAP	67	288	2
TAP	68	0	1
HLD	68	0	7	144
TAP	68	96	5
HLD	68	192	0	144
TAP	68	192	6
TAP	68	288	2
TAP	69	0	1
HLD	69	0	7	288
STR	69	72	6
SI_	69	72	6	96	120	3
TAP	70	96	0
TAP	70	96	1
TAP	70	192	6
TAP	70	192	7
TAP	70	288	2
TAP	70	288	3
TAP	71	0	5
TAP	71	48	7
TAP	71	96	0
BRK	71	144	2

T_REC_TAP	274
T_REC_BRK	2
T_REC_XTP	0
T_REC_HLD	86
T_REC_XHO	0
T_REC_STR	11
T_REC_BST	0
T_REC_XST	0
T_REC_TTP	0
T_REC_THO	0
T_REC_SLD	11
T_REC_ALL	384
T_NUM_TAP	285
T_NUM_BRK	2
T_NUM_HLD	86
T_NUM_SLD	11
T_NUM_ALL	384
T_JUDGE_TAP	287
T_JUDGE_HLD	262
T_JUDGE_SLD	11
T_JUDGE_ALL	560
TTM_EACHPAIRS	42
TTM_SCR_TAP	142500
TTM_SCR_BRK	5200
TTM_SCR_HLD	86000
TTM_SCR_SLD	16500
TTM_SCR_ALL	250200
TTM_SCR_S	242500
TTM_SCR_SS	250000
TTM_RAT_ACV	10008

