VERSION	0.00.00	1.03.00
FES_MODE	0
BPM_DEF	152.000	152.000	152.000	152.000
MET_DEF	4	4
RESOLUTION	384
CLK_DEF	384
COMPATIBLE_CODE	MA2

BPM	0	0	152.000
MET	0	0	4	4

TAP	1	0	0
TAP	1	96	0
HLD	1	192	0	96
TAP	2	0	7
TAP	2	96	7
HLD	2	192	7	96
TAP	3	0	1
TAP	3	96	1
HLD	3	192	1	96
TAP	4	0	6
TAP	4	96	6
HLD	4	192	6	96
TAP	5	0	7
TAP	5	96	6
TAP	5	192	5
TAP	5	288	4
TAP	6	0	3
TAP	6	96	2
HLD	6	192	1	96
TAP	7	0	1
TAP	7	96	3
TAP	7	192	5
TAP	7	288	7
HLD	8	0	6	144
TAP	8	144	2
TAP	9	0	0
TAP	9	96	7
TAP	9	192	0
TAP	9	288	7
TAP	10	0	1
TAP	10	96	6
TAP	10	192	1
TAP	10	288	6
TAP	11	0	2
TAP	11	96	5
TAP	11	192	2
TAP	11	288	5
HLD	12	0	3	144
TAP	12	96	4
TAP	12	144	4
TAP	13	0	4
TAP	13	96	3
TAP	13	192	4
TAP	13	288	3
TAP	14	0	5
TAP	14	96	2
TAP	14	192	5
TAP	14	288	2
TAP	15	0	6
TAP	15	96	1
TAP	15	192	7
TAP	15	288	0
HLD	16	0	1	144
TAP	16	96	0
TAP	16	144	0
HLD	17	0	0	192
HLD	17	192	1	192
TAP	18	0	2
HLD	18	144	2	144
TAP	19	0	5
TAP	19	96	2
TAP	19	192	6
TAP	19	288	1
TAP	20	0	0
TAP	20	0	1
HLD	20	144	0	144
HLD	20	144	1	144
HLD	21	0	7	192
HLD	21	192	6	192
TAP	22	0	5
HLD	22	144	5	144
TAP	23	0	2
TAP	23	96	5
TAP	23	192	1
TAP	23	288	6
TAP	24	0	6
TAP	24	0	7
HLD	24	144	6	144
HLD	24	144	7	144
HLD	25	0	1	192
TAP	25	192	2
TAP	25	288	0
HLD	26	0	6	192
TAP	26	192	5
TAP	26	288	7
TAP	27	0	2
TAP	27	96	5
TAP	27	192	1
TAP	27	288	6
TAP	28	0	0
TAP	28	0	1
TAP	28	72	0
TAP	28	72	1
TAP	28	144	0
TAP	28	144	1
STR	29	0	6
SI_	29	0	6	96	192	1
STR	30	0	2
SI_	30	0	2	96	192	5
TAP	31	0	6
TAP	31	96	2
TAP	31	192	5
TAP	31	288	1
TAP	32	0	1
TAP	32	0	6
TAP	32	72	1
TAP	32	72	6
BRK	32	144	0
BRK	32	144	7
TAP	33	0	1
TAP	33	96	6
TAP	33	192	0
TAP	33	288	7
TAP	34	0	1
TAP	34	96	6
TAP	34	192	2
TAP	34	288	7
TAP	35	0	2
TAP	35	96	5
TAP	35	192	3
TAP	35	288	4
TAP	36	0	2
TAP	36	96	5
TAP	36	192	3
TAP	36	288	4
HLD	37	0	4	288
TAP	37	96	3
TAP	37	288	1
HLD	38	0	0	288
TAP	38	96	7
TAP	38	288	5
TAP	39	0	7
TAP	39	96	0
TAP	39	192	6
TAP	39	288	1
TAP	40	0	5
TAP	40	96	2
TAP	40	192	4
TAP	40	288	3
TAP	41	0	1
TAP	41	0	5
TAP	41	96	2
TAP	41	96	6
TAP	41	192	1
TAP	41	192	6
BRK	41	288	0
BRK	41	288	7
TAP	42	0	2
TAP	42	96	7
TAP	42	192	5
TAP	42	288	0
TAP	43	0	1
TAP	43	96	6
TAP	43	192	3
TAP	43	288	4
TAP	44	0	2
TAP	44	96	6
TAP	44	192	5
TAP	44	288	1
HLD	45	0	0	144
TAP	45	96	7
TAP	45	144	7
HLD	46	0	1	192
HLD	46	192	0	192
HLD	47	0	7	288
TAP	48	0	0
TAP	48	96	7
TAP	48	192	0
TAP	48	288	7
TAP	49	0	1
TAP	49	72	1
TAP	49	144	1
HLD	50	0	2	192
HLD	50	192	3	192
HLD	51	0	4	288
TAP	52	0	2
TAP	52	96	5
TAP	52	192	2
TAP	52	288	5
TAP	53	0	3
TAP	53	72	3
TAP	53	144	3
TAP	54	0	7
TAP	54	96	6
TAP	54	192	5
TAP	54	288	4
TAP	55	0	0
TAP	55	96	1
TAP	55	192	2
TAP	55	288	3
TAP	56	0	2
TAP	56	96	5
TAP	56	192	2
TAP	56	288	7
TAP	57	0	0
TAP	57	72	7
TAP	57	144	0
TAP	58	0	0
TAP	58	96	0
TAP	58	96	1
TAP	58	192	7
TAP	58	288	6
TAP	58	288	7
TAP	59	0	2
TAP	59	96	2
TAP	59	96	3
TAP	59	192	5
TAP	59	288	4
TAP	59	288	5
TAP	60	0	0
TAP	60	0	1
TAP	60	96	0
TAP	60	96	1
TAP	60	192	6
TAP	60	192	7
TAP	60	288	6
TAP	60	288	7
TAP	61	0	0
TAP	61	0	7
TAP	61	72	0
TAP	61	72	7
BRK	61	144	0
BRK	61	144	7
TAP	62	0	1
TAP	62	96	0
TAP	62	192	2
TAP	62	288	1
TAP	63	0	6
TAP	63	96	7
TAP	63	192	5
TAP	63	288	6
TAP	64	0	3
TAP	64	96	4
TAP	64	192	5
TAP	64	288	4
TAP	65	0	3
TAP	65	48	2
TAP	65	96	3
TAP	65	144	3
TAP	66	0	5
TAP	66	96	4
TAP	66	192	3
TAP	66	288	3
TAP	67	0	1
TAP	67	96	0
TAP	67	192	7
TAP	67	288	7
TAP	68	0	6
TAP	68	96	1
TAP	68	192	5
TAP	68	288	2
TAP	69	0	4
TAP	69	48	3
TAP	69	96	4
TAP	69	144	4
HLD	70	0	4	96
TAP	70	96	0
TAP	70	192	7
TAP	70	288	6
TAP	71	0	7
TAP	71	48	0
TAP	71	96	7
TAP	71	144	7

T_REC_TAP	223
T_REC_BRK	6
T_REC_XTP	0
T_REC_HLD	30
T_REC_XHO	0
T_REC_STR	2
T_REC_BST	0
T_REC_XST	0
T_REC_TTP	0
T_REC_THO	0
T_REC_SLD	2
T_REC_ALL	263
T_NUM_TAP	225
T_NUM_BRK	6
T_NUM_HLD	30
T_NUM_SLD	2
T_NUM_ALL	263
T_JUDGE_TAP	231
T_JUDGE_HLD	106
T_JUDGE_SLD	2
T_JUDGE_ALL	339
TTM_EACHPAIRS	25
TTM_SCR_TAP	112500
TTM_SCR_BRK	15600
TTM_SCR_HLD	30000
TTM_SCR_SLD	3000
TTM_SCR_ALL	161100
TTM_SCR_S	155700
TTM_SCR_SS	160500
TTM_RAT_ACV	10037

