VERSION	0.00.00	1.03.00
FES_MODE	0
BPM_DEF	152.000	152.000	152.000	152.000
MET_DEF	4	4
RESOLUTION	384
CLK_DEF	384
COMPATIBLE_CODE	MA2

BPM	0	0	152.000
MET	0	0	4	4

TAP	3	0	0
TAP	4	0	1
TAP	5	0	0
TAP	5	192	7
TAP	6	0	6
TAP	6	192	5
TAP	7	0	6
TAP	7	96	6
TAP	7	192	6
TAP	8	0	0
TAP	8	96	0
BRK	8	192	0
TAP	9	96	7
TAP	9	288	6
TAP	10	96	7
TAP	10	288	6
TAP	11	96	7
TAP	11	288	7
TAP	12	96	0
TAP	12	96	7
TAP	12	288	0
TAP	12	288	7
TAP	13	96	0
TAP	13	288	1
TAP	14	96	0
TAP	14	288	1
TAP	15	96	0
TAP	15	288	0
TAP	16	96	0
TAP	16	96	7
TAP	16	288	0
TAP	16	288	7
TAP	17	96	5
TAP	17	288	4
TAP	18	96	5
TAP	18	288	4
TAP	19	96	5
TAP	19	288	6
TAP	20	96	7
TAP	20	288	0
TAP	21	96	2
TAP	21	288	3
TAP	22	96	2
TAP	22	288	3
TAP	23	96	1
TAP	23	96	6
TAP	23	288	1
TAP	23	288	6
TAP	24	96	0
TAP	24	96	7
TAP	24	288	0
TAP	24	288	7
TAP	25	96	0
TAP	25	288	0
TAP	25	288	1
TAP	26	96	7
TAP	26	288	6
TAP	26	288	7
TAP	27	96	0
TAP	27	96	1
TAP	27	288	6
TAP	27	288	7
TAP	28	96	0
TAP	28	96	1
TAP	28	288	6
TAP	28	288	7
TAP	29	96	0
TAP	29	288	0
TAP	29	288	1
TAP	30	96	7
TAP	30	288	6
TAP	30	288	7
TAP	31	96	0
TAP	31	96	1
TAP	31	288	6
TAP	31	288	7
TAP	32	96	0
TAP	32	96	1
TAP	32	288	6
TAP	32	288	7
HLD	33	96	5	192
HLD	34	96	4	192
HLD	35	96	3	192
HLD	36	96	2	192
TAP	37	96	1
TAP	37	288	0
TAP	38	96	7
TAP	38	288	6
HLD	39	96	7	192
HLD	40	96	0	192
HLD	41	96	1	192
TAP	42	96	1
TAP	42	288	2
TAP	43	96	3
TAP	43	288	4
TAP	44	96	3
TAP	44	288	2
TAP	45	96	1
TAP	45	288	0
HLD	46	96	7	192
HLD	47	96	6	192
TAP	48	96	7
TAP	48	288	0
TAP	49	96	1
TAP	49	288	2
HLD	50	96	1	192
HLD	51	96	0	192
TAP	52	96	0
TAP	52	288	7
TAP	53	96	6
BRK	53	288	7
TAP	54	96	0
TAP	54	288	1
TAP	55	96	2
TAP	55	288	3
TAP	56	96	2
TAP	56	96	3
TAP	56	288	4
TAP	56	288	5
TAP	57	96	2
TAP	57	96	3
TAP	57	288	4
TAP	57	288	5
TAP	58	96	3
TAP	58	288	2
TAP	59	96	1
TAP	59	288	0
TAP	60	96	0
TAP	60	96	1
TAP	60	288	6
TAP	60	288	7
TAP	61	96	4
TAP	61	96	5
TAP	61	288	2
TAP	61	288	3
HLD	62	96	4	192
HLD	63	96	5	192
HLD	64	96	6	192
TAP	65	96	7
TAP	65	288	0
HLD	66	96	7	193
HLD	67	96	6	192
HLD	68	96	5	192
TAP	69	96	6
TAP	69	288	7
BRK	71	144	0

T_REC_TAP	126
T_REC_BRK	3
T_REC_XTP	0
T_REC_HLD	17
T_REC_XHO	0
T_REC_STR	0
T_REC_BST	0
T_REC_XST	0
T_REC_TTP	0
T_REC_THO	0
T_REC_SLD	0
T_REC_ALL	146
T_NUM_TAP	126
T_NUM_BRK	3
T_NUM_HLD	17
T_NUM_SLD	0
T_NUM_ALL	146
T_JUDGE_TAP	129
T_JUDGE_HLD	69
T_JUDGE_SLD	0
T_JUDGE_ALL	198
TTM_EACHPAIRS	28
TTM_SCR_TAP	63000
TTM_SCR_BRK	7800
TTM_SCR_HLD	17000
TTM_SCR_SLD	0
TTM_SCR_ALL	87800
TTM_SCR_S	84900
TTM_SCR_SS	87500
TTM_RAT_ACV	10034

