VERSION	0.00.00	1.03.00
FES_MODE	0
BPM_DEF	130.000	130.000	130.000	130.000
MET_DEF	4	4
RESOLUTION	384
CLK_DEF	384
COMPATIBLE_CODE	MA2

BPM	0	0	130.000
MET	0	0	4	4

TAP	2	0	2
TAP	2	48	2
TAP	2	96	5
TAP	2	120	4
TAP	2	144	5
TAP	2	168	4
TAP	2	216	1
TAP	2	264	1
TAP	2	312	3
TAP	2	336	2
TAP	3	0	5
TAP	3	48	5
TAP	3	96	2
TAP	3	120	3
TAP	3	144	2
TAP	3	168	3
TAP	3	216	6
TAP	3	264	6
TAP	3	312	4
TAP	3	336	5
TAP	4	0	3
TAP	4	48	4
TAP	4	96	3
TAP	4	120	4
TAP	4	144	3
TAP	4	168	4
TAP	4	216	2
TAP	4	216	5
TAP	4	264	2
TAP	4	264	5
TAP	4	312	3
TAP	4	312	4
TAP	4	336	3
TAP	4	336	4
TAP	5	0	2
TAP	5	0	5
TAP	5	96	1
TAP	5	96	6
TAP	5	192	0
TAP	5	192	7
TAP	5	240	3
TAP	5	240	4
BRK	5	288	1
BRK	5	288	6
STR	6	0	4
SI_	6	0	4	96	48	0
TAP	6	0	6
TAP	6	48	5
TAP	6	96	4
TAP	6	192	1
STR	6	192	3
SI_	6	192	3	96	48	7
TAP	6	240	2
TAP	6	288	3
STR	7	0	4
SCL	7	0	4	96	48	0
TAP	7	0	6
TAP	7	48	5
TAP	7	96	4
TAP	7	192	1
STR	7	192	3
SCR	7	192	3	96	48	7
TAP	7	240	2
TAP	7	288	3
STR	8	0	4
SI_	8	0	4	96	48	0
SI_	8	0	4	96	48	1
TAP	8	0	6
TAP	8	48	5
TAP	8	96	4
TAP	8	192	1
STR	8	192	3
SI_	8	192	3	96	48	6
SI_	8	192	3	96	48	7
TAP	8	240	2
TAP	8	288	3
TAP	9	0	4
TAP	9	0	6
TAP	9	72	1
TAP	9	72	3
TAP	9	144	2
TAP	9	144	5
STR	9	192	0
SI_	9	192	0	96	48	3
STR	9	192	7
SI_	9	192	7	96	48	4
BRK	9	288	0
BRK	9	288	7
TAP	10	0	0
STR	10	0	3
SI_	10	0	3	96	48	7
TAP	10	48	1
TAP	10	96	2
TAP	10	96	3
TAP	10	144	1
STR	10	192	4
SI_	10	192	4	96	48	0
TAP	10	192	7
TAP	10	240	6
TAP	10	288	4
TAP	10	288	5
TAP	10	336	6
TAP	11	0	0
STR	11	0	3
SCR	11	0	3	96	48	7
TAP	11	48	1
TAP	11	96	2
TAP	11	96	3
TAP	11	144	1
STR	11	192	4
SCL	11	192	4	96	48	0
TAP	11	192	7
TAP	11	240	6
TAP	11	288	4
TAP	11	288	5
TAP	11	336	6
TAP	12	0	0
STR	12	0	3
SLR	12	0	3	96	48	7
TAP	12	48	1
TAP	12	96	2
TAP	12	96	3
TAP	12	144	1
STR	12	192	4
SLL	12	192	4	96	48	0
TAP	12	192	7
TAP	12	240	6
TAP	12	288	4
TAP	12	288	5
TAP	12	336	6
TAP	13	0	5
TAP	13	0	7
TAP	13	72	0
TAP	13	72	2
TAP	13	144	1
TAP	13	144	6
TAP	13	192	3
TAP	13	192	4
BRK	13	288	1
BRK	13	288	6
STR	14	0	0
SI_	14	0	0	96	48	4
STR	14	0	1
SI_	14	0	1	96	48	5
STR	14	96	0
SCR	14	96	0	96	48	3
STR	14	96	1
SCL	14	96	1	96	48	6
TAP	14	192	0
TAP	14	192	1
TAP	14	288	3
TAP	14	288	7
STR	15	0	1
SI_	15	0	1	96	48	5
STR	15	48	6
SI_	15	48	6	96	48	2
STR	15	96	1
SCR	15	96	1	96	96	5
TAP	15	144	6
TAP	15	192	1
TAP	15	240	0
TAP	15	288	7
TAP	15	336	6
TAP	16	0	4
STR	16	0	5
SI_	16	0	5	96	48	0
TAP	16	48	3
TAP	16	48	6
TAP	16	96	5
TAP	16	144	4
STR	16	192	2
SI_	16	192	2	96	48	7
TAP	16	192	3
TAP	16	240	1
TAP	16	240	4
TAP	16	288	2
TAP	16	336	3
TAP	17	0	0
TAP	17	0	4
TAP	17	48	1
TAP	17	48	5
TAP	17	96	2
TAP	17	96	6
STR	17	144	3
SCL	17	144	3	96	48	0
TAP	17	144	7
TAP	17	192	7
TAP	17	240	7
TAP	17	256	6
TAP	17	272	5
TAP	17	288	4
STR	18	0	6
SI_	18	0	6	96	48	2
STR	18	0	7
SI_	18	0	7	96	48	3
STR	18	96	6
SCR	18	96	6	96	48	1
STR	18	96	7
SCL	18	96	7	96	48	4
TAP	18	192	6
TAP	18	192	7
TAP	18	288	0
TAP	18	288	4
STR	19	0	6
SI_	19	0	6	96	48	2
STR	19	48	1
SI_	19	48	1	96	48	5
STR	19	96	6
SCL	19	96	6	96	96	2
TAP	19	144	1
TAP	19	192	6
TAP	19	240	7
TAP	19	288	0
TAP	19	336	1
STR	20	0	6
SI_	20	0	6	96	48	3
STR	20	0	7
SI_	20	0	7	96	48	2
TAP	20	96	6
TAP	20	96	7
STR	20	192	0
SI_	20	192	0	96	48	5
STR	20	192	1
SI_	20	192	1	96	48	4
TAP	20	288	0
TAP	20	288	1
STR	21	0	0
SI_	21	0	0	96	48	4
STR	21	0	7
SI_	21	0	7	96	48	3
STR	21	96	0
SCR	21	96	0	96	48	3
STR	21	96	7
SCL	21	96	7	96	48	4
TAP	21	192	0
TAP	21	192	7
BRK	21	288	1
BRK	21	288	6
STR	22	0	1
SXL	22	0	1	96	96	4
TAP	22	72	0
HLD	22	144	7	96
TAP	22	240	5
TAP	22	288	4
TAP	22	336	3
STR	23	0	6
SXR	23	0	6	96	96	3
TAP	23	72	7
HLD	23	144	0	96
TAP	23	240	2
TAP	23	288	3
TAP	23	336	4
STR	24	0	1
SCR	24	0	1	96	72	4
STR	24	72	4
SI_	24	72	4	96	48	0
TAP	24	144	0
STR	24	192	6
SCL	24	192	6	96	72	3
STR	24	264	3
SI_	24	264	3	96	48	7
TAP	24	336	7
STR	25	0	1
SCR	25	0	1	96	72	4
STR	25	72	4
SI_	25	72	4	96	48	0
TAP	25	144	0
STR	25	192	7
SCL	25	192	7	96	48	3
STR	25	288	7
SCR	25	288	7	96	48	3
TAP	26	0	7
TAP	26	96	4
STR	26	96	6
SI_	26	96	6	96	48	2
STR	26	192	1
SI_	26	192	1	96	48	5
TAP	26	192	6
TAP	26	288	1
TAP	26	288	7
BST	27	0	2
SI_	27	0	2	96	48	7
BST	27	0	6
SI_	27	0	6	96	48	3
TAP	27	96	2
TAP	27	96	6
BST	27	192	1
SI_	27	192	1	96	48	4
BST	27	192	5
SI_	27	192	5	96	48	0
TAP	27	288	1
TAP	27	288	5
BST	28	0	1
SLR	28	0	1	96	96	7
BST	28	0	6
SLL	28	0	6	96	96	0
TAP	28	288	1
TAP	28	288	6
TAP	28	336	2
TAP	28	336	5
STR	29	0	3
SXR	29	0	3	96	192	0
STR	29	0	4
SXL	29	0	4	96	192	7
HLD	30	0	2	96
TAP	30	96	3
TAP	30	144	5
TAP	30	168	4
TAP	30	216	3
TAP	30	216	6
TAP	30	264	2
TAP	30	288	3
HLD	31	0	5	96
TAP	31	96	4
TAP	31	144	2
TAP	31	168	3
TAP	31	216	1
TAP	31	216	4
TAP	31	264	5
TAP	31	288	4
HLD	32	0	2	96
TAP	32	96	3
TAP	32	144	5
TAP	32	168	4
TAP	32	216	3
TAP	32	216	6
TAP	32	264	2
TAP	32	288	3
STR	33	0	1
SXL	33	0	1	96	192	4
STR	33	0	5
SXL	33	0	5	96	192	0
STR	34	0	2
SXR	34	0	2	96	192	7
STR	34	0	6
SXR	34	0	6	96	192	3
STR	35	0	0
SXL	35	0	0	96	144	7
STR	35	0	4
SXL	35	0	4	96	144	3
STR	36	0	3
SXR	36	0	3	96	144	4
STR	36	0	7
SXR	36	0	7	96	144	0
HLD	37	0	1	288
TAP	37	0	4
TAP	37	72	4
TAP	37	144	5
TAP	37	216	6
TAP	37	288	7
TAP	38	0	3
HLD	38	0	6	288
TAP	38	72	3
TAP	38	144	2
TAP	38	216	1
TAP	38	288	0
HLD	39	0	1	288
TAP	39	0	4
TAP	39	72	4
TAP	39	144	5
TAP	39	216	6
TAP	39	288	7
BRK	40	0	1
BRK	40	0	6
TAP	40	192	1
TAP	40	192	6
TAP	40	240	1
TAP	40	240	6
TAP	40	288	0
TAP	40	312	0
TAP	40	336	0
TAP	40	360	0
STR	41	0	6
SI_	41	0	6	96	48	2
STR	41	0	7
SI_	41	0	7	96	48	3
STR	41	96	6
SCR	41	96	6	96	48	1
STR	41	96	7
SCL	41	96	7	96	48	4
TAP	41	192	6
TAP	41	192	7
TAP	41	288	0
TAP	41	288	4
STR	42	0	6
SI_	42	0	6	96	48	2
STR	42	48	1
SI_	42	48	1	96	48	5
STR	42	96	6
SCR	42	96	6	96	96	2
TAP	42	144	1
TAP	42	192	6
TAP	42	240	5
TAP	42	288	4
TAP	42	336	3
TAP	43	0	2
STR	43	0	4
SI_	43	0	4	96	48	0
TAP	43	48	3
TAP	43	96	4
TAP	43	96	5
TAP	43	144	6
STR	43	192	3
SI_	43	192	3	96	48	7
TAP	43	192	5
TAP	43	240	4
TAP	43	288	2
TAP	43	288	3
TAP	43	336	1
TAP	44	0	3
TAP	44	0	7
TAP	44	48	2
TAP	44	48	6
TAP	44	96	1
TAP	44	96	5
TAP	44	144	0
STR	44	144	4
SCR	44	144	4	96	48	7
TAP	44	192	0
TAP	44	240	0
TAP	44	256	1
TAP	44	272	2
TAP	44	288	3
STR	45	0	0
SI_	45	0	0	96	48	4
STR	45	0	1
SI_	45	0	1	96	48	5
STR	45	96	0
SCR	45	96	0	96	48	3
STR	45	96	1
SCL	45	96	1	96	48	6
TAP	45	192	0
TAP	45	192	1
TAP	45	288	3
TAP	45	288	7
STR	46	0	1
SI_	46	0	1	96	48	5
STR	46	48	6
SI_	46	48	6	96	48	2
STR	46	96	1
SCL	46	96	1	96	96	5
TAP	46	144	6
TAP	46	192	1
TAP	46	240	2
TAP	46	288	3
TAP	46	336	4
STR	47	0	4
SI_	47	0	4	96	48	1
STR	47	0	5
SI_	47	0	5	96	48	0
TAP	47	96	4
TAP	47	96	5
STR	47	192	2
SI_	47	192	2	96	48	7
STR	47	192	3
SI_	47	192	3	96	48	6
TAP	47	288	2
TAP	47	288	3
STR	48	0	3
SI_	48	0	3	96	48	7
STR	48	0	4
SI_	48	0	4	96	48	0
STR	48	96	3
SCL	48	96	3	96	48	0
STR	48	96	4
SCR	48	96	4	96	48	7
TAP	48	192	3
TAP	48	192	4
BRK	48	288	1
BRK	48	288	6
STR	49	0	6
SXR	49	0	6	96	96	3
TAP	49	72	0
STR	49	144	1
SCL	49	144	1	96	48	6
TAP	49	240	2
TAP	49	288	3
TAP	49	336	4
STR	50	0	1
SXL	50	0	1	96	96	4
TAP	50	72	0
STR	50	144	6
SCR	50	144	6	96	48	1
TAP	50	240	5
TAP	50	288	4
TAP	50	336	3
STR	51	0	5
SCR	51	0	5	96	72	0
STR	51	72	0
SI_	51	72	0	96	48	4
TAP	51	144	4
STR	51	192	2
SCL	51	192	2	96	72	7
STR	51	264	7
SI_	51	264	7	96	48	3
TAP	51	336	3
STR	52	0	5
SCR	52	0	5	96	72	0
STR	52	72	0
SI_	52	72	0	96	48	4
TAP	52	144	4
STR	52	192	1
SCR	52	192	1	96	48	5
STR	52	288	1
SCL	52	288	1	96	48	5
TAP	53	0	1
STR	53	96	1
SI_	53	96	1	96	48	4
TAP	53	96	3
TAP	53	192	1
STR	53	192	6
SI_	53	192	6	96	48	2
TAP	53	288	0
TAP	53	288	6
STR	54	0	0
SI_	54	0	0	96	48	3
STR	54	0	7
SI_	54	0	7	96	48	4
TAP	54	192	1
TAP	54	192	3
TAP	54	288	4
TAP	54	288	6
STR	55	0	1
SXL	55	0	1	96	96	4
TAP	55	72	7
STR	55	144	5
SCR	55	144	5	96	48	1
TAP	55	240	5
TAP	55	288	4
TAP	55	336	3
STR	56	0	6
SXR	56	0	6	96	96	3
TAP	56	72	0
STR	56	144	2
SCL	56	144	2	96	48	6
TAP	56	240	2
TAP	56	288	3
TAP	56	336	4
STR	57	0	2
SCL	57	0	2	96	72	7
STR	57	72	7
SUR	57	72	7	96	48	3
TAP	57	144	4
STR	57	192	5
SCR	57	192	5	96	72	0
STR	57	264	0
SUL	57	264	0	96	48	4
TAP	57	336	3
STR	58	0	2
SCL	58	0	2	96	72	7
STR	58	72	7
SUR	58	72	7	96	48	3
TAP	58	144	4
STR	58	192	6
SCL	58	192	6	96	48	2
STR	58	288	6
SCR	58	288	6	96	48	2
TAP	59	0	6
TAP	59	96	4
STR	59	96	6
SI_	59	96	6	96	48	3
STR	59	192	1
SI_	59	192	1	96	48	5
TAP	59	192	6
TAP	59	288	1
TAP	59	288	7
BST	60	0	0
SCR	60	0	0	96	48	3
BRK	60	0	7
TAP	60	96	0
TAP	60	96	5
TAP	60	144	6
BRK	60	192	0
BST	60	192	7
SCL	60	192	7	96	48	4
TAP	60	288	2
TAP	60	288	7
TAP	60	336	1
BST	61	0	0
SCR	61	0	0	96	96	7
BRK	61	0	7
TAP	61	288	1
TAP	61	288	6
TAP	61	336	2
TAP	61	336	5
STR	62	0	3
SXR	62	0	3	96	192	0
STR	62	0	4
SXL	62	0	4	96	192	7

T_REC_TAP	310
T_REC_BRK	15
T_REC_XTP	0
T_REC_HLD	8
T_REC_XHO	0
T_REC_STR	118
T_REC_BST	9
T_REC_XST	0
T_REC_TTP	0
T_REC_THO	0
T_REC_SLD	129
T_REC_ALL	589
T_NUM_TAP	428
T_NUM_BRK	24
T_NUM_HLD	8
T_NUM_SLD	129
T_NUM_ALL	589
T_JUDGE_TAP	452
T_JUDGE_HLD	28
T_JUDGE_SLD	129
T_JUDGE_ALL	609
TTM_EACHPAIRS	126
TTM_SCR_TAP	214000
TTM_SCR_BRK	62400
TTM_SCR_HLD	8000
TTM_SCR_SLD	193500
TTM_SCR_ALL	477900
TTM_SCR_S	461250
TTM_SCR_SS	475500
TTM_RAT_ACV	10050

