VERSION	0.00.00	1.03.00
FES_MODE	0
BPM_DEF	130.000	130.000	130.000	130.000
MET_DEF	4	4
RESOLUTION	384
CLK_DEF	384
COMPATIBLE_CODE	MA2

BPM	0	0	130.000
MET	0	0	4	4

TAP	2	0	0
TAP	2	96	1
TAP	2	192	2
TAP	2	288	3
TAP	3	0	4
TAP	3	96	5
TAP	3	192	6
TAP	3	288	7
TAP	4	0	0
TAP	4	48	1
TAP	4	96	2
TAP	4	144	3
TAP	4	192	4
TAP	4	240	5
TAP	4	288	6
TAP	4	336	7
TAP	5	0	7
TAP	5	24	6
TAP	5	48	5
TAP	5	72	4
TAP	5	96	3
TAP	5	120	2
TAP	5	144	1
TAP	5	168	0
TAP	5	192	7
TAP	5	240	0
BRK	5	288	0
BRK	5	288	7
TAP	6	0	0
TAP	6	48	5
TAP	6	96	7
TAP	6	144	2
TAP	6	192	3
TAP	6	192	4
TAP	6	240	3
TAP	6	288	0
TAP	6	336	7
TAP	7	0	0
TAP	7	0	7
TAP	7	48	2
TAP	7	96	4
TAP	7	144	6
TAP	7	192	6
TAP	7	192	7
TAP	7	240	1
TAP	7	288	7
TAP	7	336	0
TAP	8	0	0
TAP	8	0	1
TAP	8	48	5
TAP	8	96	6
TAP	8	144	2
TAP	8	192	0
TAP	8	192	7
TAP	8	240	3
STR	8	288	0
SI_	8	288	0	96	48	3
STR	9	0	7
SI_	9	0	7	96	48	4
STR	9	96	1
SI_	9	96	1	96	48	5
STR	9	192	6
SI_	9	192	6	96	48	2
HLD	10	0	5	192
TAP	10	48	4
TAP	10	96	3
TAP	10	144	4
HLD	10	192	2	192
TAP	10	240	0
TAP	10	288	1
TAP	10	336	0
HLD	11	0	6	192
TAP	11	48	5
TAP	11	96	4
TAP	11	144	5
HLD	11	192	1	192
TAP	11	240	2
TAP	11	288	3
TAP	11	336	2
HLD	12	0	0	96
TAP	12	48	7
TAP	12	96	6
TAP	12	144	7
HLD	12	192	7	96
TAP	12	240	0
TAP	12	288	0
TAP	13	0	0
TAP	13	0	7
TAP	13	72	1
TAP	13	72	6
TAP	13	144	2
TAP	13	144	5
TAP	13	192	3
TAP	13	192	4
BRK	13	288	0
BRK	13	288	7
TAP	14	0	0
TAP	14	24	7
TAP	14	48	0
TAP	14	96	1
TAP	14	144	3
TAP	14	168	4
TAP	14	192	3
TAP	14	240	2
TAP	14	288	7
TAP	14	336	6
TAP	15	0	2
TAP	15	24	3
TAP	15	48	2
TAP	15	96	1
TAP	15	144	0
TAP	15	168	1
TAP	15	192	2
TAP	15	240	7
TAP	15	264	6
TAP	15	288	5
TAP	16	0	6
TAP	16	0	7
TAP	16	48	6
TAP	16	96	6
TAP	16	96	7
TAP	16	144	4
TAP	16	192	2
TAP	16	192	3
TAP	16	240	3
TAP	16	288	2
TAP	16	288	3
TAP	17	0	5
TAP	17	24	4
TAP	17	48	5
TAP	17	96	6
TAP	17	144	7
TAP	17	168	0
TAP	17	192	7
TAP	17	240	7
TAP	17	288	6
TAP	18	0	0
TAP	18	0	1
TAP	18	48	1
TAP	18	96	0
TAP	18	96	2
TAP	18	144	3
TAP	18	192	6
TAP	18	192	7
TAP	18	240	6
TAP	18	288	5
TAP	18	288	7
TAP	19	0	1
TAP	19	24	0
TAP	19	48	1
TAP	19	96	2
TAP	19	144	3
TAP	19	168	2
TAP	19	192	3
TAP	19	216	2
TAP	19	240	3
TAP	19	288	0
TAP	20	0	0
TAP	20	0	2
TAP	20	96	1
TAP	20	96	3
TAP	20	192	4
TAP	20	192	6
TAP	20	288	5
TAP	20	288	7
TAP	21	0	0
TAP	21	0	4
TAP	21	48	1
TAP	21	48	5
TAP	21	96	2
TAP	21	96	6
TAP	21	144	3
TAP	21	144	7
TAP	21	192	0
TAP	21	192	7
TAP	21	240	0
BRK	21	288	0
BRK	21	288	7
TAP	22	0	0
TAP	22	0	2
TAP	22	72	5
TAP	22	72	7
HLD	22	144	3	144
TAP	22	192	2
TAP	22	240	1
TAP	22	288	2
TAP	23	0	4
TAP	23	0	6
TAP	23	72	1
TAP	23	72	3
HLD	23	144	1	144
TAP	23	192	2
TAP	23	216	3
TAP	23	240	2
TAP	23	288	0
STR	24	0	0
SI_	24	0	0	96	48	4
STR	24	96	7
SI_	24	96	7	96	48	3
STR	24	192	0
SI_	24	192	0	96	48	3
STR	24	288	7
SI_	24	288	7	96	48	4
TAP	25	0	0
TAP	25	24	1
TAP	25	48	2
TAP	25	72	3
TAP	25	96	4
TAP	25	120	5
TAP	25	144	6
TAP	25	168	7
TAP	25	192	0
TAP	25	240	1
BRK	25	288	0
TAP	26	0	0
STR	26	96	1
SI_	26	96	1	96	96	6
TAP	26	144	2
TAP	26	192	3
TAP	26	240	4
TAP	26	288	5
TAP	27	0	6
TAP	27	48	6
STR	27	96	5
SI_	27	96	5	96	96	2
TAP	27	144	6
TAP	27	192	7
TAP	27	240	0
TAP	27	288	1
STR	28	0	0
SI_	28	0	0	96	96	5
STR	28	96	1
SI_	28	96	1	96	96	4
STR	29	0	0
SCL	29	0	0	96	240	5
STR	30	0	4
SCL	30	0	4	96	240	1
STR	31	0	0
SI_	31	0	0	96	240	5
STR	31	0	1
SI_	31	0	1	96	240	4
STR	32	0	6
SI_	32	0	6	96	240	3
STR	32	0	7
SI_	32	0	7	96	240	2
STR	33	0	0
SI_	33	0	0	96	240	3
TAP	33	0	1
TAP	33	96	2
TAP	33	192	4
TAP	33	288	5
STR	34	0	3
SI_	34	0	3	96	240	6
TAP	34	0	4
TAP	34	96	5
TAP	34	144	7
TAP	34	192	7
TAP	34	240	0
TAP	34	288	0
STR	35	0	6
SI_	35	0	6	96	240	1
TAP	35	0	7
TAP	35	96	0
TAP	35	192	2
TAP	35	288	3
STR	36	0	1
SI_	36	0	1	96	240	4
TAP	36	0	2
TAP	36	96	3
TAP	36	144	5
TAP	36	192	5
TAP	36	240	6
BRK	36	288	6
STR	37	0	4
SI_	37	0	4	96	96	7
STR	37	192	6
SI_	37	192	6	96	96	2
STR	38	0	1
SI_	38	0	1	96	96	5
STR	38	192	0
SI_	38	192	0	96	96	3
STR	39	0	4
SI_	39	0	4	96	48	7
STR	39	192	7
SI_	39	192	7	96	48	3
BRK	40	0	0
TAP	40	24	1
TAP	40	48	2
TAP	40	72	3
BRK	40	96	7
TAP	40	120	6
TAP	40	144	5
TAP	40	168	4
BRK	40	192	0
TAP	40	216	1
TAP	40	240	2
TAP	40	264	3
BRK	40	288	7
TAP	40	312	6
TAP	40	336	5
TAP	40	360	4
TAP	41	0	0
TAP	41	0	2
TAP	41	48	1
TAP	41	96	0
TAP	41	96	2
TAP	41	144	1
TAP	41	192	5
TAP	41	192	7
TAP	41	240	6
TAP	41	288	5
TAP	41	288	7
TAP	41	336	6
TAP	42	0	0
TAP	42	48	7
TAP	42	96	0
TAP	42	144	3
TAP	42	168	4
TAP	42	192	3
TAP	42	216	4
TAP	42	240	3
TAP	42	288	4
TAP	43	0	4
TAP	43	0	6
TAP	43	48	5
TAP	43	96	4
TAP	43	96	6
TAP	43	144	5
TAP	43	192	1
TAP	43	192	3
TAP	43	240	2
TAP	43	288	1
TAP	43	288	3
TAP	43	336	2
TAP	44	0	3
TAP	44	48	4
TAP	44	96	3
TAP	44	144	7
TAP	44	168	0
TAP	44	192	7
TAP	44	216	0
TAP	44	240	7
TAP	44	288	0
TAP	45	0	0
TAP	45	0	1
TAP	45	48	2
TAP	45	96	0
TAP	45	96	1
TAP	45	144	2
TAP	45	192	4
TAP	45	192	5
TAP	45	240	3
TAP	45	288	4
TAP	45	288	5
TAP	45	336	3
TAP	46	0	3
TAP	46	0	5
TAP	46	48	3
TAP	46	48	5
TAP	46	96	2
TAP	46	96	4
TAP	46	144	2
TAP	46	144	4
TAP	46	192	0
TAP	46	192	7
TAP	46	240	0
TAP	46	240	7
TAP	46	288	3
TAP	46	288	4
TAP	46	336	3
TAP	46	336	4
TAP	47	0	3
TAP	47	48	3
TAP	47	96	2
TAP	47	144	2
TAP	47	192	1
TAP	47	240	1
TAP	47	288	0
TAP	47	336	0
BRK	48	0	0
TAP	48	24	1
TAP	48	48	2
TAP	48	72	3
BRK	48	96	4
TAP	48	121	5
TAP	48	144	6
TAP	48	168	7
BRK	48	192	0
TAP	48	216	1
TAP	48	240	2
TAP	48	264	3
BRK	48	288	4
TAP	48	312	5
TAP	48	336	6
TAP	48	360	7
TAP	49	0	0
TAP	49	0	1
TAP	49	48	1
TAP	49	96	0
TAP	49	96	1
TAP	49	144	1
TAP	49	192	6
TAP	49	192	7
TAP	49	240	6
TAP	49	288	6
TAP	49	288	7
TAP	49	336	6
TAP	50	0	5
TAP	50	48	4
TAP	50	96	3
TAP	50	144	1
TAP	50	168	2
TAP	50	192	1
TAP	50	216	2
TAP	50	240	1
TAP	50	288	2
TAP	51	0	4
TAP	51	0	5
TAP	51	48	5
TAP	51	96	4
TAP	51	96	5
TAP	51	144	5
TAP	51	192	2
TAP	51	192	3
TAP	51	240	2
TAP	51	288	2
TAP	51	288	3
TAP	51	336	2
TAP	52	0	1
TAP	52	48	0
TAP	52	96	7
TAP	52	144	6
TAP	52	168	5
TAP	52	192	6
TAP	52	216	5
TAP	52	240	6
TAP	52	288	5
TAP	53	0	0
TAP	53	0	1
TAP	53	48	0
TAP	53	96	0
TAP	53	96	7
TAP	53	144	7
TAP	53	192	6
TAP	53	192	7
TAP	53	240	6
TAP	53	288	1
TAP	53	288	6
TAP	53	336	0
TAP	53	336	7
HLD	54	0	0	96
HLD	54	0	4	96
TAP	54	192	3
TAP	54	192	7
BRK	54	288	0
BRK	54	288	7
TAP	55	0	3
TAP	55	96	2
TAP	55	192	1
TAP	55	288	0
TAP	56	0	7
TAP	56	96	6
TAP	56	192	5
TAP	56	288	4
TAP	57	0	3
TAP	57	48	2
TAP	57	96	1
TAP	57	144	0
TAP	57	192	7
TAP	57	240	6
TAP	57	288	5
TAP	57	336	4
BRK	58	0	3
TAP	58	24	2
TAP	58	48	1
TAP	58	72	0
BRK	58	96	7
TAP	58	120	6
TAP	58	144	5
TAP	58	168	4
BRK	58	192	3
TAP	58	216	2
TAP	58	240	1
TAP	58	264	0
BRK	58	288	0
BRK	58	288	7
TAP	58	312	1
TAP	58	312	6
TAP	58	336	2
TAP	58	336	5
TAP	58	360	3
TAP	58	360	4
BRK	59	96	2
BRK	59	96	5
BRK	59	192	1
BRK	59	192	6
BRK	59	288	0
BRK	59	288	7
STR	60	0	1
SI_	60	0	1	96	48	4
STR	60	192	6
SI_	60	192	6	96	48	3
STR	61	0	0
SI_	61	0	0	96	24	3
STR	61	96	7
SI_	61	96	7	96	24	4
STR	61	192	1
SI_	61	192	1	96	48	5
STR	62	0	0
SI_	62	0	0	96	96	3
STR	62	0	7
SI_	62	0	7	96	96	4

T_REC_TAP	403
T_REC_BRK	29
T_REC_XTP	0
T_REC_HLD	10
T_REC_XHO	0
T_REC_STR	35
T_REC_BST	0
T_REC_XST	0
T_REC_TTP	0
T_REC_THO	0
T_REC_SLD	35
T_REC_ALL	512
T_NUM_TAP	438
T_NUM_BRK	29
T_NUM_HLD	10
T_NUM_SLD	35
T_NUM_ALL	512
T_JUDGE_TAP	467
T_JUDGE_HLD	30
T_JUDGE_SLD	35
T_JUDGE_ALL	532
TTM_EACHPAIRS	83
TTM_SCR_TAP	219000
TTM_SCR_BRK	75400
TTM_SCR_HLD	10000
TTM_SCR_SLD	52500
TTM_SCR_ALL	356900
TTM_SCR_S	343400
TTM_SCR_SS	354000
TTM_RAT_ACV	10081

