VERSION	0.00.00	1.03.00
FES_MODE	0
BPM_DEF	130.000	130.000	130.000	130.000
MET_DEF	4	4
RESOLUTION	384
CLK_DEF	384
COMPATIBLE_CODE	MA2

BPM	0	0	130.000
MET	0	0	4	4

TAP	2	0	0
TAP	2	0	7
TAP	2	96	0
TAP	2	96	1
TAP	2	192	6
TAP	2	192	7
TAP	2	288	0
TAP	2	288	1
TAP	3	0	6
TAP	3	0	7
TAP	3	96	0
TAP	3	96	1
TAP	3	192	6
TAP	3	192	7
TAP	3	288	0
TAP	3	288	1
TAP	4	0	4
TAP	4	0	5
TAP	4	96	2
TAP	4	96	3
TAP	4	192	4
TAP	4	192	5
TAP	4	288	2
TAP	4	288	3
TAP	5	0	4
TAP	5	0	5
TAP	5	96	2
TAP	5	96	3
TAP	5	192	4
TAP	5	240	5
BRK	5	288	6
TAP	6	0	0
TAP	6	0	7
TAP	6	96	1
TAP	6	96	2
TAP	6	192	1
TAP	6	192	3
TAP	6	288	0
TAP	6	288	1
TAP	7	0	0
TAP	7	0	7
TAP	7	96	5
TAP	7	96	6
TAP	7	192	4
TAP	7	192	6
TAP	7	288	6
TAP	7	288	7
TAP	8	0	0
TAP	8	0	1
TAP	8	96	3
TAP	8	96	4
TAP	8	192	6
TAP	8	192	7
TAP	8	288	0
TAP	8	288	7
TAP	9	0	1
TAP	9	72	2
TAP	9	144	3
TAP	9	192	2
TAP	9	192	6
TAP	9	288	0
TAP	9	288	4
TAP	10	0	6
TAP	10	0	7
TAP	10	96	2
TAP	10	96	3
TAP	10	192	0
TAP	10	192	1
TAP	10	288	4
TAP	10	288	5
TAP	11	0	3
TAP	11	0	4
TAP	11	96	1
TAP	11	96	6
TAP	11	192	6
TAP	11	192	7
TAP	11	288	5
TAP	11	288	6
TAP	12	0	2
TAP	12	0	5
TAP	12	96	2
TAP	12	96	3
TAP	12	192	2
TAP	12	192	5
TAP	12	288	4
TAP	12	288	5
TAP	13	0	0
TAP	13	0	7
TAP	13	72	1
TAP	13	72	6
TAP	13	144	2
TAP	13	144	5
TAP	13	192	3
TAP	13	192	4
BRK	13	288	1
HLD	14	0	2	96
TAP	14	0	7
TAP	14	48	0
TAP	14	96	1
TAP	14	192	0
HLD	14	192	5	96
TAP	14	240	7
TAP	14	288	6
HLD	15	0	1	96
TAP	15	0	2
TAP	15	48	0
TAP	15	96	7
TAP	15	192	5
HLD	15	192	6	96
TAP	15	240	7
TAP	15	288	0
HLD	16	0	2	96
TAP	16	48	3
TAP	16	96	4
HLD	16	192	5	96
TAP	16	240	4
TAP	16	288	3
TAP	17	0	2
TAP	17	0	3
TAP	17	96	4
TAP	17	96	5
TAP	17	192	0
TAP	17	192	1
BRK	17	288	6
BRK	17	288	7
TAP	18	0	0
HLD	18	0	1	96
TAP	18	96	6
HLD	18	192	6	96
TAP	18	192	7
TAP	18	288	1
TAP	19	0	7
TAP	19	96	6
TAP	19	192	5
TAP	19	288	4
HLD	20	0	5	96
HLD	20	96	6	96
HLD	20	192	7	96
BRK	20	288	0
HLD	21	0	0	96
HLD	21	96	7	96
HLD	21	192	6	96
HLD	22	0	0	72
TAP	22	0	6
HLD	22	72	7	216
HLD	22	144	1	144
HLD	23	0	2	72
TAP	23	0	6
HLD	23	72	4	216
HLD	23	144	0	144
STR	24	0	0
SCL	24	0	0	96	96	5
STR	24	192	4
SI_	24	192	4	96	96	0
STR	25	0	1
SCR	25	0	1	96	96	4
STR	25	192	5
SCR	25	192	5	96	96	0
TAP	26	96	6
TAP	26	96	7
TAP	26	192	0
TAP	26	192	7
TAP	26	288	0
TAP	26	288	1
HLD	27	0	0	96
HLD	27	0	7	96
HLD	27	192	1	96
HLD	27	192	6	96
HLD	28	0	2	192
HLD	28	0	5	192
STR	28	288	3
SI_	28	288	3	96	96	0
STR	28	288	4
SI_	28	288	4	96	96	7
HLD	30	0	6	288
HLD	31	0	5	288
HLD	32	0	4	288
TAP	33	0	3
TAP	33	96	2
TAP	33	192	1
TAP	33	288	0
TAP	34	0	0
TAP	34	96	1
TAP	34	192	2
TAP	34	288	3
HLD	35	0	4	384
TAP	35	96	5
TAP	35	192	6
TAP	35	288	7
HLD	36	0	0	384
TAP	36	96	1
TAP	36	192	2
TAP	36	288	3
TAP	37	0	4
TAP	37	96	3
TAP	37	192	2
TAP	37	288	1
TAP	38	0	0
TAP	38	96	7
TAP	38	192	6
TAP	38	288	5
HLD	39	0	6	288
TAP	39	96	7
TAP	39	192	0
TAP	39	288	1
HLD	40	0	2	96
TAP	40	0	6
TAP	40	96	5
TAP	40	192	0
TAP	40	240	0
BRK	40	288	0
TAP	41	0	0
TAP	41	0	1
TAP	41	96	1
TAP	41	96	7
TAP	41	192	0
TAP	41	192	1
TAP	41	288	1
TAP	41	288	7
TAP	42	0	6
TAP	42	0	7
TAP	42	96	0
TAP	42	96	6
TAP	42	192	6
TAP	42	192	7
TAP	42	288	0
TAP	42	288	6
TAP	43	0	5
TAP	43	48	5
BRK	43	96	5
TAP	43	192	2
TAP	43	240	2
BRK	43	288	2
TAP	44	0	0
TAP	44	0	7
TAP	44	96	5
TAP	44	96	6
TAP	44	192	3
TAP	44	192	4
TAP	44	288	1
TAP	44	288	2
TAP	45	0	6
TAP	45	0	7
TAP	45	96	0
TAP	45	96	6
TAP	45	192	6
TAP	45	192	7
TAP	45	288	0
TAP	45	288	6
TAP	46	0	0
TAP	46	0	1
TAP	46	96	1
TAP	46	96	7
TAP	46	192	0
TAP	46	192	1
TAP	46	288	1
TAP	46	288	7
TAP	47	0	1
HLD	47	0	5	96
HLD	47	96	4	96
HLD	47	192	3	96
BRK	47	288	2
HLD	48	0	2	96
TAP	48	0	6
HLD	48	96	3	96
HLD	48	192	4	96
BRK	48	288	5
HLD	49	0	0	72
TAP	49	0	6
HLD	49	72	7	216
HLD	49	144	1	144
HLD	50	0	2	72
TAP	50	0	6
HLD	50	72	4	216
HLD	50	144	0	144
STR	51	0	7
SCR	51	0	7	96	96	2
STR	51	192	3
SI_	51	192	3	96	96	7
STR	52	0	6
SCL	52	0	6	96	96	3
STR	52	192	2
SCL	52	192	2	96	96	7
TAP	53	96	6
TAP	53	96	7
TAP	53	192	0
TAP	53	192	5
TAP	53	288	1
TAP	53	288	4
HLD	54	0	2	96
HLD	54	0	3	96
TAP	54	192	1
TAP	54	192	4
TAP	54	288	6
TAP	54	288	7
TAP	55	0	0
HLD	55	0	7	72
HLD	55	72	1	216
HLD	55	144	2	144
HLD	56	0	0	72
TAP	56	0	7
HLD	56	72	6	216
HLD	56	144	5	144
TAP	57	0	2
HLD	57	0	5	96
TAP	57	96	4
HLD	57	192	2	96
TAP	57	192	5
TAP	57	288	3
TAP	58	0	0
HLD	58	0	7	96
TAP	58	96	6
HLD	58	192	0	96
TAP	58	192	7
TAP	58	288	1
TAP	59	96	6
TAP	59	96	7
TAP	59	192	0
TAP	59	192	7
TAP	59	288	0
TAP	59	288	1
HLD	60	0	0	96
HLD	60	0	7	96
HLD	60	192	1	96
HLD	60	192	6	96
HLD	61	0	2	192
HLD	61	0	5	192
STR	61	288	3
SI_	61	288	3	96	96	0
STR	61	288	4
SI_	61	288	4	96	96	7

T_REC_TAP	234
T_REC_BRK	10
T_REC_XTP	0
T_REC_HLD	63
T_REC_XHO	0
T_REC_STR	12
T_REC_BST	0
T_REC_XST	0
T_REC_TTP	0
T_REC_THO	0
T_REC_SLD	12
T_REC_ALL	331
T_NUM_TAP	246
T_NUM_BRK	10
T_NUM_HLD	63
T_NUM_SLD	12
T_NUM_ALL	331
T_JUDGE_TAP	256
T_JUDGE_HLD	186
T_JUDGE_SLD	12
T_JUDGE_ALL	454
TTM_EACHPAIRS	107
TTM_SCR_TAP	123000
TTM_SCR_BRK	26000
TTM_SCR_HLD	63000
TTM_SCR_SLD	18000
TTM_SCR_ALL	230000
TTM_SCR_S	222150
TTM_SCR_SS	229000
TTM_RAT_ACV	10043

