VERSION	0.00.00	1.03.00
FES_MODE	0
BPM_DEF	130.000	130.000	130.000	130.000
MET_DEF	4	4
RESOLUTION	384
CLK_DEF	384
COMPATIBLE_CODE	MA2

BPM	0	0	130.000
MET	0	0	4	4

TAP	2	0	0
TAP	2	96	0
TAP	2	192	0
TAP	3	0	7
TAP	3	96	7
TAP	3	192	7
TAP	4	0	0
TAP	4	96	1
TAP	4	192	2
TAP	5	0	7
TAP	5	96	6
TAP	5	192	5
BRK	5	288	1
BRK	5	288	6
TAP	6	0	0
TAP	6	96	7
TAP	6	192	0
TAP	6	288	7
TAP	7	0	1
TAP	7	96	6
TAP	7	192	1
TAP	7	288	6
TAP	8	0	2
TAP	8	96	5
TAP	8	192	2
TAP	8	288	5
TAP	9	0	3
TAP	9	96	4
TAP	9	192	3
TAP	9	192	4
TAP	9	288	3
TAP	9	288	4
HLD	10	0	2	192
TAP	10	96	3
TAP	10	288	2
HLD	11	0	5	192
TAP	11	96	4
TAP	11	288	5
HLD	12	0	1	192
TAP	12	96	2
TAP	12	288	1
TAP	13	0	0
TAP	13	192	7
TAP	13	288	1
TAP	13	288	6
BRK	14	0	0
TAP	14	96	1
TAP	14	192	2
TAP	14	288	1
TAP	15	0	0
TAP	15	96	1
TAP	15	192	0
TAP	15	288	0
TAP	15	288	1
TAP	16	0	7
TAP	16	96	6
TAP	16	192	5
TAP	16	288	6
TAP	17	0	7
TAP	17	96	6
TAP	17	192	7
TAP	17	288	6
TAP	17	288	7
STR	18	0	1
SI_	18	0	1	96	96	6
STR	19	0	5
SI_	19	0	5	96	96	2
TAP	20	0	0
TAP	20	96	0
TAP	20	192	7
TAP	20	288	7
TAP	21	0	0
TAP	21	96	7
TAP	21	192	0
TAP	21	288	0
TAP	21	288	7
TAP	22	0	1
TAP	22	72	1
TAP	22	144	1
TAP	23	0	6
TAP	23	72	6
TAP	23	144	6
TAP	24	0	7
TAP	24	96	0
TAP	24	192	6
TAP	24	288	2
TAP	25	0	5
TAP	25	96	1
TAP	25	192	4
TAP	25	288	3
TAP	25	288	4
TAP	26	96	1
TAP	26	192	2
TAP	26	288	3
HLD	27	0	4	96
TAP	27	96	5
HLD	27	192	5	96
STR	27	288	6
SI_	27	288	6	96	96	2
STR	28	288	4
SI_	28	288	4	96	96	1
HLD	31	0	2	384
HLD	32	0	1	288
TAP	33	0	0
TAP	34	0	2
TAP	35	0	4
TAP	36	0	6
TAP	37	0	5
TAP	38	0	3
STR	39	0	1
SI_	39	0	1	96	192	6
TAP	40	0	7
TAP	40	96	0
TAP	40	192	7
BRK	40	288	0
BRK	40	288	7
TAP	41	0	0
TAP	41	96	1
TAP	41	192	2
TAP	41	288	1
TAP	42	0	7
TAP	42	96	6
TAP	42	192	5
TAP	42	288	6
TAP	43	0	5
TAP	43	96	4
TAP	43	192	3
TAP	43	288	2
TAP	44	0	2
TAP	44	96	3
TAP	44	192	4
TAP	44	288	5
STR	45	0	7
SI_	45	0	7	96	96	3
STR	46	0	0
SI_	46	0	0	96	96	4
TAP	47	0	3
TAP	47	96	4
TAP	47	192	3
TAP	47	288	4
TAP	48	0	2
TAP	48	0	5
TAP	48	96	1
TAP	48	96	6
TAP	48	192	1
TAP	48	192	6
BRK	48	288	0
BRK	48	288	7
TAP	49	0	0
TAP	49	72	7
TAP	49	144	0
TAP	50	0	7
TAP	50	72	0
TAP	50	144	7
TAP	51	0	0
TAP	51	0	1
TAP	51	96	0
TAP	51	96	1
TAP	51	192	6
TAP	51	192	7
TAP	51	288	6
TAP	51	288	7
TAP	52	0	1
TAP	52	0	6
TAP	52	96	1
TAP	52	96	6
TAP	52	192	0
TAP	52	192	7
BRK	52	288	0
BRK	52	288	7
TAP	53	96	6
TAP	53	192	7
TAP	53	288	0
HLD	54	0	1	96
TAP	54	192	6
TAP	54	288	6
TAP	55	0	3
TAP	55	72	4
TAP	55	144	3
TAP	56	0	4
TAP	56	72	3
TAP	56	144	4
TAP	57	0	4
TAP	57	0	5
TAP	57	96	4
TAP	57	96	5
TAP	57	192	2
TAP	57	192	3
TAP	57	288	2
TAP	57	288	3
TAP	58	0	6
TAP	58	0	7
TAP	58	96	6
TAP	58	96	7
TAP	58	192	0
TAP	58	192	1
BRK	58	288	0
BRK	58	288	1
TAP	59	0	2
TAP	59	96	1
TAP	59	192	0
STR	59	288	7
SI_	59	288	7	96	96	4
TAP	61	0	3
TAP	61	96	2
TAP	61	192	1
STR	61	288	0
SI_	61	288	0	96	96	3
STR	61	288	7
SI_	61	288	7	96	96	4

T_REC_TAP	171
T_REC_BRK	11
T_REC_XTP	0
T_REC_HLD	8
T_REC_XHO	0
T_REC_STR	10
T_REC_BST	0
T_REC_XST	0
T_REC_TTP	0
T_REC_THO	0
T_REC_SLD	10
T_REC_ALL	210
T_NUM_TAP	181
T_NUM_BRK	11
T_NUM_HLD	8
T_NUM_SLD	10
T_NUM_ALL	210
T_JUDGE_TAP	192
T_JUDGE_HLD	32
T_JUDGE_SLD	10
T_JUDGE_ALL	234
TTM_EACHPAIRS	30
TTM_SCR_TAP	90500
TTM_SCR_BRK	28600
TTM_SCR_HLD	8000
TTM_SCR_SLD	15000
TTM_SCR_ALL	142100
TTM_SCR_S	136800
TTM_SCR_SS	141000
TTM_RAT_ACV	10078

