VERSION	0.00.00	1.03.00
FES_MODE	0
BPM_DEF	130.000	130.000	130.000	130.000
MET_DEF	4	4
RESOLUTION	384
CLK_DEF	384
COMPATIBLE_CODE	MA2

BPM	0	0	130.000
MET	0	0	4	4

TAP	2	0	0
TAP	2	192	0
TAP	3	0	7
TAP	3	192	7
TAP	4	0	0
TAP	4	192	7
TAP	5	0	0
TAP	5	192	7
BRK	5	288	0
TAP	6	0	0
TAP	6	96	1
TAP	6	192	2
TAP	7	0	7
TAP	7	96	6
TAP	7	192	5
TAP	8	0	4
TAP	8	96	3
TAP	8	192	2
TAP	9	0	1
TAP	9	96	0
TAP	9	192	7
HLD	10	0	7	288
HLD	11	0	0	288
TAP	12	0	7
TAP	12	192	6
STR	13	0	5
SI_	13	0	5	96	192	2
TAP	14	0	0
TAP	14	96	7
TAP	14	192	0
TAP	15	0	1
TAP	15	96	6
TAP	15	192	1
TAP	16	0	2
TAP	16	96	5
TAP	16	192	2
TAP	17	0	3
TAP	17	96	4
TAP	17	192	3
TAP	18	0	2
TAP	18	96	2
TAP	18	192	5
TAP	19	0	1
TAP	19	96	1
TAP	19	192	6
TAP	20	0	2
TAP	20	96	2
TAP	20	192	3
TAP	20	288	3
TAP	21	0	4
TAP	21	96	4
TAP	21	192	5
BRK	21	288	5
STR	22	0	6
SI_	22	0	6	96	192	1
STR	23	0	2
SI_	23	0	2	96	192	5
TAP	24	0	0
TAP	24	192	7
TAP	25	0	0
TAP	25	96	7
TAP	25	192	0
TAP	26	96	0
TAP	26	192	1
TAP	26	288	2
HLD	27	0	3	96
HLD	27	192	4	96
HLD	28	0	5	96
BRK	29	0	6
TAP	30	0	7
TAP	31	0	0
TAP	32	0	6
TAP	33	0	1
TAP	33	192	1
TAP	34	0	0
TAP	34	192	0
TAP	35	0	7
TAP	35	192	7
HLD	36	0	6	288
TAP	37	0	5
TAP	37	192	4
TAP	38	0	3
TAP	38	192	2
TAP	39	0	1
TAP	39	192	0
TAP	40	0	0
TAP	40	96	1
HLD	40	192	0	96
TAP	41	0	0
TAP	41	96	1
TAP	41	192	0
TAP	42	0	7
TAP	42	96	6
TAP	42	192	7
TAP	43	0	5
TAP	43	96	4
TAP	43	192	3
TAP	43	288	2
TAP	44	0	3
TAP	44	96	4
TAP	44	192	5
TAP	45	0	6
TAP	45	192	7
TAP	46	0	0
TAP	46	96	7
TAP	46	192	0
TAP	47	0	1
TAP	47	96	1
TAP	47	192	0
TAP	47	288	0
TAP	48	0	0
TAP	48	0	7
TAP	48	96	0
TAP	48	96	7
BRK	48	192	0
BRK	48	192	7
TAP	49	0	0
TAP	49	96	0
TAP	49	192	1
TAP	50	0	1
TAP	50	96	1
TAP	50	192	2
TAP	51	0	2
TAP	51	96	2
TAP	51	192	3
TAP	51	288	3
TAP	52	0	4
TAP	52	96	4
TAP	52	192	5
TAP	52	288	5
TAP	53	96	6
TAP	53	192	1
TAP	53	288	6
HLD	54	0	7	96
TAP	54	192	0
TAP	54	288	0
STR	55	0	0
SI_	55	0	0	96	192	3
STR	56	0	7
SI_	56	0	7	96	192	4
TAP	57	0	3
TAP	57	96	3
TAP	57	192	2
TAP	57	288	2
TAP	58	0	1
TAP	58	96	1
HLD	58	192	0	96
TAP	59	96	0
TAP	59	192	7
TAP	59	288	0
STR	60	0	7
SI_	60	0	7	96	192	3
STR	61	0	0
SI_	61	0	0	96	192	4
BRK	62	0	7

T_REC_TAP	126
T_REC_BRK	6
T_REC_XTP	0
T_REC_HLD	9
T_REC_XHO	0
T_REC_STR	7
T_REC_BST	0
T_REC_XST	0
T_REC_TTP	0
T_REC_THO	0
T_REC_SLD	7
T_REC_ALL	155
T_NUM_TAP	133
T_NUM_BRK	6
T_NUM_HLD	9
T_NUM_SLD	7
T_NUM_ALL	155
T_JUDGE_TAP	139
T_JUDGE_HLD	30
T_JUDGE_SLD	7
T_JUDGE_ALL	176
TTM_EACHPAIRS	3
TTM_SCR_TAP	66500
TTM_SCR_BRK	15600
TTM_SCR_HLD	9000
TTM_SCR_SLD	10500
TTM_SCR_ALL	101600
TTM_SCR_S	98000
TTM_SCR_SS	101000
TTM_RAT_ACV	10059

