VERSION	0.00.00	1.03.00
FES_MODE	0
BPM_DEF	120.000	120.000	120.000	120.000
MET_DEF	4	4
RESOLUTION	384
CLK_DEF	384
COMPATIBLE_CODE	MA2

BPM	0	0	120.000
MET	0	0	4	4

STR	2	0	5
SI_	2	0	5	96	96	0
TAP	2	192	7
TAP	2	240	7
TAP	2	288	7
STR	3	0	2
SI_	3	0	2	96	96	7
TAP	3	192	0
TAP	3	240	0
TAP	3	288	0
STR	4	0	5
SI_	4	0	5	96	96	0
TAP	4	192	7
TAP	4	240	7
TAP	4	288	7
TAP	5	0	0
TAP	5	0	3
TAP	5	96	1
TAP	5	96	5
TAP	5	192	4
TAP	5	192	7
BRK	5	288	2
BRK	5	288	6
HLD	6	0	6	96
STR	6	0	7
SCR	6	0	7	96	48	2
TAP	6	168	3
TAP	6	192	4
TAP	6	240	3
TAP	6	288	2
STR	7	0	0
SCL	7	0	0	96	48	5
HLD	7	0	1	96
TAP	7	168	4
TAP	7	192	3
TAP	7	240	4
TAP	7	288	5
STR	8	0	4
SCL	8	0	4	96	48	1
HLD	8	0	5	96
TAP	8	168	0
TAP	8	192	7
TAP	8	240	0
TAP	8	288	1
HLD	9	0	2	96
STR	9	0	3
SCR	9	0	3	96	48	6
TAP	9	168	7
TAP	9	192	0
TAP	9	240	7
TAP	9	288	6
TAP	9	312	5
TAP	9	336	4
HLD	10	0	6	96
STR	10	0	7
SCR	10	0	7	96	48	2
TAP	10	168	3
TAP	10	192	4
TAP	10	240	3
TAP	10	288	2
STR	11	0	0
SCL	11	0	0	96	48	5
HLD	11	0	1	96
TAP	11	168	4
TAP	11	192	3
TAP	11	240	4
TAP	11	288	5
TAP	12	0	2
TAP	12	0	6
TAP	12	96	0
TAP	12	96	4
TAP	12	144	7
TAP	12	168	6
TAP	12	216	0
TAP	12	240	1
TAP	12	264	2
TAP	12	288	3
TAP	13	0	0
TAP	13	0	5
TAP	13	96	2
TAP	13	96	7
TAP	13	192	1
TAP	13	192	6
HLD	14	0	6	96
STR	14	0	7
SCR	14	0	7	96	48	2
TAP	14	168	3
TAP	14	192	4
TAP	14	240	3
TAP	14	288	2
HLD	15	0	0	144
TAP	15	0	7
TAP	15	48	5
TAP	15	96	3
HLD	15	144	1	144
HLD	16	0	0	144
TAP	16	0	1
TAP	16	48	3
TAP	16	96	5
HLD	16	144	7	144
TAP	17	0	2
TAP	17	72	4
TAP	17	96	5
TAP	17	144	3
TAP	17	240	2
BRK	17	288	1
STR	18	0	0
SCL	18	0	0	96	48	5
HLD	18	0	1	96
TAP	18	168	4
TAP	18	192	3
TAP	18	240	4
TAP	18	288	5
TAP	19	0	0
HLD	19	0	7	144
TAP	19	48	2
TAP	19	96	4
HLD	19	144	6	144
STR	20	0	1
SCR	20	0	1	96	96	4
STR	20	144	6
SCL	20	144	6	96	96	3
HLD	20	288	1	96
TAP	21	0	0
TAP	21	96	3
TAP	21	96	7
TAP	21	192	1
TAP	21	192	5
TAP	22	0	5
TAP	22	48	3
TAP	22	72	3
TAP	22	120	2
TAP	22	168	1
TAP	22	192	1
TAP	22	240	2
TAP	22	264	3
TAP	22	312	4
TAP	22	360	5
TAP	23	0	5
TAP	23	48	6
TAP	23	72	5
TAP	23	120	3
TAP	23	168	1
TAP	23	192	2
TAP	23	216	1
TAP	23	264	4
TAP	23	288	5
TAP	23	336	6
TAP	24	0	5
TAP	24	48	3
TAP	24	72	3
TAP	24	120	2
TAP	24	168	1
TAP	24	192	1
TAP	24	240	2
TAP	24	264	3
TAP	24	312	4
TAP	24	360	5
TAP	25	0	5
TAP	25	48	6
TAP	25	72	5
TAP	25	120	3
TAP	25	168	2
TAP	25	192	2
TAP	25	240	4
TAP	25	288	6
TAP	25	336	0
TAP	26	48	7
TAP	26	72	6
TAP	26	96	7
TAP	26	120	6
TAP	26	144	7
TAP	26	168	5
TAP	26	192	7
TAP	26	216	6
BRK	26	264	0
TAP	26	336	1
TAP	26	360	2
TAP	27	0	1
TAP	27	24	2
TAP	27	48	1
TAP	27	72	2
TAP	27	96	3
TAP	27	120	4
TAP	27	168	6
TAP	28	0	2
TAP	28	0	3
TAP	28	96	2
TAP	28	96	4
TAP	28	192	2
TAP	28	192	5
TAP	28	288	2
TAP	28	288	6
TAP	29	0	0
TAP	29	0	4
TAP	29	96	2
TAP	29	96	6
TAP	29	192	1
TAP	29	192	5
BRK	29	288	3
BRK	29	288	7
HLD	30	0	1	192
STR	30	0	6
SCL	30	0	6	96	49	3
HLD	30	192	0	192
TAP	30	288	1
TAP	30	336	2
HLD	31	0	3	144
STR	31	96	2
SCL	31	96	2	96	48	7
HLD	31	144	6	144
STR	32	0	1
SCR	32	0	1	96	48	4
HLD	32	0	6	192
HLD	32	192	7	192
TAP	32	288	6
TAP	32	336	5
HLD	33	0	4	144
STR	33	96	5
SCL	33	96	5	96	48	2
HLD	33	144	1	144
TAP	33	288	7
TAP	33	336	0
HLD	34	0	7	96
HLD	34	96	5	96
HLD	34	192	3	96
STR	34	288	4
SCL	34	288	4	96	48	1
TAP	34	336	5
STR	35	0	7
SI_	35	0	7	96	48	4
STR	35	96	0
SI_	35	96	0	96	96	3
TAP	35	336	4
TAP	35	336	5
TAP	36	48	2
TAP	36	48	3
TAP	36	144	3
TAP	36	144	7
TAP	36	240	6
TAP	36	288	5
TAP	36	336	4
HLD	37	0	0	288
BRK	37	96	7
HLD	38	0	1	192
STR	38	0	6
SCL	38	0	6	96	49	3
HLD	38	192	0	192
TAP	38	288	1
TAP	38	336	2
HLD	39	0	3	144
STR	39	96	2
SCL	39	96	2	96	48	7
HLD	39	144	6	144
STR	40	0	1
SCR	40	0	1	96	48	4
HLD	40	0	6	192
HLD	40	192	7	192
TAP	40	288	6
TAP	40	336	5
HLD	41	0	4	144
STR	41	96	5
SCL	41	96	5	96	48	2
HLD	41	144	1	144
TAP	41	288	7
TAP	41	336	0
HLD	42	0	7	96
HLD	42	96	5	96
HLD	42	192	3	96
STR	42	288	4
SCL	42	288	4	96	48	1
TAP	42	336	5
STR	43	0	7
SI_	43	0	7	96	48	4
STR	43	96	0
SI_	43	96	0	96	96	3
TAP	43	336	4
TAP	43	336	5
TAP	44	48	2
TAP	44	48	3
TAP	44	144	3
TAP	44	144	7
TAP	44	240	6
TAP	44	288	5
TAP	44	336	4
BRK	45	0	3
BRK	45	0	7
BRK	45	96	0
BRK	45	96	4
BRK	45	192	2
BRK	45	192	6

T_REC_TAP	186
T_REC_BRK	13
T_REC_XTP	0
T_REC_HLD	38
T_REC_XHO	0
T_REC_STR	27
T_REC_BST	0
T_REC_XST	0
T_REC_TTP	0
T_REC_THO	0
T_REC_SLD	27
T_REC_ALL	291
T_NUM_TAP	213
T_NUM_BRK	13
T_NUM_HLD	38
T_NUM_SLD	27
T_NUM_ALL	291
T_JUDGE_TAP	226
T_JUDGE_HLD	110
T_JUDGE_SLD	27
T_JUDGE_ALL	363
TTM_EACHPAIRS	43
TTM_SCR_TAP	106500
TTM_SCR_BRK	33800
TTM_SCR_HLD	38000
TTM_SCR_SLD	40500
TTM_SCR_ALL	218800
TTM_SCR_S	211000
TTM_SCR_SS	217500
TTM_RAT_ACV	10059

