VERSION	0.00.00	1.03.00
FES_MODE	0
BPM_DEF	120.000	120.000	120.000	120.000
MET_DEF	4	4
RESOLUTION	384
CLK_DEF	384
COMPATIBLE_CODE	MA2

BPM	0	0	120.000
MET	0	0	4	4

TAP	2	0	1
HLD	2	96	2	192
HLD	2	96	3	192
TAP	3	0	2
TAP	3	0	3
TAP	3	96	4
TAP	3	96	5
TAP	3	192	0
TAP	3	192	4
TAP	3	288	2
TAP	3	288	6
HLD	4	0	5	96
HLD	4	96	4	96
HLD	4	192	3	96
TAP	4	288	2
TAP	5	0	7
TAP	5	96	6
TAP	5	192	5
BRK	5	288	0
STR	6	0	5
SI_	6	0	5	96	96	0
HLD	6	0	7	432
TAP	6	288	0
TAP	7	48	1
TAP	7	96	2
TAP	7	144	1
TAP	7	192	0
TAP	7	240	7
TAP	7	336	6
HLD	8	48	4	624
HLD	8	48	5	624
HLD	10	0	0	432
STR	10	0	2
SI_	10	0	2	96	96	7
TAP	10	288	7
TAP	11	48	6
TAP	11	96	5
TAP	11	144	4
TAP	11	192	3
TAP	11	240	2
HLD	11	336	1	336
TAP	13	0	1
TAP	13	0	5
TAP	13	96	2
TAP	13	96	6
TAP	13	192	3
TAP	13	192	7
STR	14	0	4
SI_	14	0	4	96	96	0
HLD	14	0	7	288
TAP	14	288	0
TAP	15	0	7
TAP	15	48	6
TAP	15	96	5
HLD	15	144	4	144
TAP	16	0	5
TAP	16	48	6
TAP	16	96	7
HLD	16	144	0	144
HLD	17	0	7	96
TAP	17	96	6
HLD	17	144	6	96
TAP	17	240	7
BRK	17	288	7
HLD	18	0	0	288
STR	18	0	3
SI_	18	0	3	96	96	7
TAP	18	288	7
TAP	19	0	0
TAP	19	48	1
TAP	19	96	2
HLD	19	144	3	144
TAP	20	0	0
TAP	20	0	7
TAP	20	96	6
TAP	20	144	5
TAP	20	144	6
TAP	20	240	4
TAP	20	288	3
TAP	20	288	4
TAP	21	0	0
TAP	21	0	2
TAP	21	96	1
TAP	21	96	5
TAP	21	192	3
BRK	21	192	7
TAP	22	0	4
TAP	22	96	3
TAP	22	192	2
TAP	22	288	1
TAP	23	0	3
TAP	23	96	4
TAP	23	192	5
TAP	23	288	6
TAP	24	0	5
TAP	24	96	5
TAP	24	192	4
TAP	24	288	4
TAP	25	0	3
TAP	25	96	3
TAP	25	192	2
TAP	25	288	2
TAP	26	0	1
TAP	26	96	0
TAP	26	96	7
TAP	26	192	6
TAP	26	240	6
TAP	26	288	6
TAP	27	0	5
TAP	27	96	0
TAP	27	96	7
TAP	27	192	1
TAP	27	240	1
TAP	27	288	1
HLD	28	0	2	96
HLD	28	96	1	96
HLD	28	192	0	96
TAP	28	288	7
TAP	29	0	0
TAP	29	96	1
TAP	29	192	2
BRK	29	288	7
HLD	30	0	0	192
TAP	30	0	7
TAP	30	96	1
HLD	30	192	7	192
TAP	30	288	6
HLD	31	0	0	192
TAP	31	96	1
HLD	31	192	7	96
TAP	31	288	6
HLD	32	0	2	192
TAP	32	0	5
TAP	32	96	3
HLD	32	192	5	192
TAP	32	288	4
HLD	33	0	2	192
TAP	33	96	3
HLD	33	192	5	96
TAP	33	288	4
TAP	34	0	0
TAP	34	0	7
TAP	34	96	1
TAP	34	192	2
TAP	34	288	3
TAP	35	0	2
TAP	35	0	4
TAP	35	96	3
TAP	35	96	5
TAP	35	144	2
BRK	35	192	1
TAP	35	336	0
TAP	35	336	6
TAP	36	48	0
TAP	36	48	7
TAP	36	144	1
TAP	36	144	6
TAP	36	240	7
TAP	36	288	6
TAP	36	336	7
STR	37	0	0
SCL	37	0	0	96	192	5
STR	37	0	1
SCR	37	0	1	96	192	4
TAP	38	0	0
TAP	38	0	5
TAP	38	96	3
TAP	38	96	6
TAP	38	192	1
TAP	38	192	4
TAP	38	288	0
TAP	38	336	7
TAP	39	0	6
HLD	39	96	5	192
TAP	39	144	6
HLD	39	192	7	96
TAP	40	0	2
TAP	40	0	7
TAP	40	96	1
TAP	40	96	4
TAP	40	192	3
TAP	40	192	6
TAP	40	288	7
TAP	40	336	0
TAP	41	0	7
HLD	41	96	0	192
TAP	41	144	1
HLD	41	192	2	96
TAP	42	0	0
TAP	42	0	7
TAP	42	96	2
TAP	42	96	5
TAP	42	192	3
TAP	42	192	4
TAP	42	288	4
TAP	42	336	5
HLD	43	0	6	96
TAP	43	96	5
TAP	43	144	4
HLD	43	192	3	96
TAP	43	288	1
TAP	43	336	1
TAP	43	336	3
TAP	44	48	2
TAP	44	48	6
TAP	44	144	0
TAP	44	144	4
TAP	44	240	7
TAP	44	288	6
TAP	44	336	7
TAP	45	0	0
TAP	45	96	1
TAP	45	96	5
STR	45	192	3
SI_	45	192	3	96	24	7
TAP	45	192	7

T_REC_TAP	163
T_REC_BRK	5
T_REC_XTP	0
T_REC_HLD	34
T_REC_XHO	0
T_REC_STR	7
T_REC_BST	0
T_REC_XST	0
T_REC_TTP	0
T_REC_THO	0
T_REC_SLD	7
T_REC_ALL	216
T_NUM_TAP	170
T_NUM_BRK	5
T_NUM_HLD	34
T_NUM_SLD	7
T_NUM_ALL	216
T_JUDGE_TAP	175
T_JUDGE_HLD	140
T_JUDGE_SLD	7
T_JUDGE_ALL	322
TTM_EACHPAIRS	44
TTM_SCR_TAP	85000
TTM_SCR_BRK	13000
TTM_SCR_HLD	34000
TTM_SCR_SLD	10500
TTM_SCR_ALL	142500
TTM_SCR_S	137750
TTM_SCR_SS	142000
TTM_RAT_ACV	10035

