VERSION	0.00.00	1.03.00
FES_MODE	0
BPM_DEF	120.000	120.000	120.000	120.000
MET_DEF	4	4
RESOLUTION	384
CLK_DEF	384
COMPATIBLE_CODE	MA2

BPM	0	0	120.000
MET	0	0	4	4

TAP	2	0	0
TAP	2	96	0
TAP	2	192	0
TAP	2	192	1
TAP	3	0	7
TAP	3	96	7
TAP	3	192	6
TAP	3	192	7
TAP	4	0	0
TAP	4	96	7
TAP	4	192	0
TAP	4	192	7
TAP	5	0	2
TAP	5	96	1
TAP	5	192	0
BRK	5	288	0
BRK	5	288	7
TAP	6	0	0
STR	6	96	0
SI_	6	96	0	96	48	3
TAP	7	0	7
STR	7	96	7
SI_	7	96	7	96	48	4
TAP	8	0	0
TAP	8	0	7
STR	8	96	0
SI_	8	96	0	96	48	3
STR	8	96	7
SI_	8	96	7	96	48	4
TAP	9	0	1
TAP	9	96	6
TAP	9	192	0
TAP	9	288	7
TAP	10	0	1
STR	10	96	1
SI_	10	96	1	96	48	6
TAP	11	0	5
STR	11	96	5
SI_	11	96	5	96	48	2
TAP	12	0	1
TAP	12	0	2
STR	12	96	1
SI_	12	96	1	96	48	6
STR	12	96	2
SI_	12	96	2	96	48	5
TAP	13	0	1
TAP	13	0	6
TAP	13	96	0
TAP	13	96	7
BRK	13	192	1
BRK	13	192	6
HLD	14	0	2	288
TAP	14	96	3
TAP	14	288	3
HLD	15	0	4	288
TAP	15	96	5
TAP	15	288	5
HLD	16	0	6	288
TAP	16	96	7
TAP	16	288	7
TAP	17	0	0
TAP	17	144	1
TAP	17	288	2
HLD	18	0	1	288
TAP	18	96	0
TAP	18	288	6
HLD	19	0	6	288
TAP	19	96	5
TAP	19	288	3
TAP	20	0	2
TAP	20	144	5
TAP	20	288	3
TAP	21	0	2
TAP	21	0	5
TAP	21	96	3
TAP	21	96	4
BRK	21	192	2
BRK	21	192	5
TAP	22	0	0
TAP	22	192	1
HLD	23	0	0	192
TAP	23	192	7
TAP	23	288	1
TAP	23	288	6
TAP	24	0	5
TAP	24	192	4
TAP	25	0	3
TAP	25	192	2
TAP	26	0	3
TAP	26	96	4
TAP	26	192	3
TAP	26	288	4
TAP	26	288	5
TAP	27	0	4
TAP	27	96	3
TAP	27	192	4
TAP	27	288	2
TAP	27	288	3
STR	28	0	1
SI_	28	0	1	96	96	6
TAP	29	0	1
TAP	29	0	5
TAP	29	96	2
TAP	29	96	6
TAP	29	192	0
TAP	29	192	7
BRK	29	288	1
BRK	29	288	6
TAP	30	0	0
TAP	30	96	7
TAP	30	192	0
TAP	30	288	1
TAP	30	336	1
TAP	31	0	1
TAP	31	96	2
HLD	31	192	3	96
TAP	32	0	4
TAP	32	96	3
TAP	32	192	4
TAP	32	288	5
TAP	32	336	5
TAP	33	0	5
TAP	33	96	6
HLD	33	192	7	96
STR	34	0	0
SI_	34	0	0	96	96	4
STR	35	0	7
SI_	35	0	7	96	96	3
TAP	35	336	1
TAP	36	48	6
TAP	36	144	1
TAP	36	240	0
TAP	36	288	7
TAP	36	336	0
TAP	37	0	7
HLD	37	96	0	192
STR	38	0	7
SI_	38	0	7	96	48	3
TAP	38	288	1
STR	39	0	0
SI_	39	0	0	96	48	4
TAP	39	288	6
STR	40	0	5
SI_	40	0	5	96	48	2
TAP	40	288	0
HLD	41	0	0	193
HLD	41	0	7	193
TAP	42	0	0
TAP	42	0	7
TAP	42	96	0
TAP	42	96	1
TAP	42	192	1
TAP	42	192	2
TAP	42	288	0
TAP	43	0	6
TAP	43	0	7
TAP	43	96	5
TAP	43	96	6
TAP	43	192	3
TAP	43	192	4
TAP	43	336	5
TAP	44	48	1
TAP	44	144	7
TAP	44	240	0
BRK	44	288	0
TAP	45	0	1
TAP	45	0	6
TAP	45	96	2
TAP	45	96	5
TAP	45	192	3
TAP	45	192	4

T_REC_TAP	123
T_REC_BRK	9
T_REC_XTP	0
T_REC_HLD	11
T_REC_XHO	0
T_REC_STR	14
T_REC_BST	0
T_REC_XST	0
T_REC_TTP	0
T_REC_THO	0
T_REC_SLD	14
T_REC_ALL	171
T_NUM_TAP	137
T_NUM_BRK	9
T_NUM_HLD	11
T_NUM_SLD	14
T_NUM_ALL	171
T_JUDGE_TAP	146
T_JUDGE_HLD	52
T_JUDGE_SLD	14
T_JUDGE_ALL	212
TTM_EACHPAIRS	31
TTM_SCR_TAP	68500
TTM_SCR_BRK	23400
TTM_SCR_HLD	11000
TTM_SCR_SLD	21000
TTM_SCR_ALL	123900
TTM_SCR_S	119350
TTM_SCR_SS	123000
TTM_RAT_ACV	10073

