VERSION	0.00.00	1.03.00
FES_MODE	0
BPM_DEF	120.000	120.000	120.000	120.000
MET_DEF	4	4
RESOLUTION	384
CLK_DEF	384
COMPATIBLE_CODE	MA2

BPM	0	0	120.000
MET	0	0	4	4

TAP	2	0	1
TAP	2	96	1
TAP	2	192	0
TAP	3	0	6
TAP	3	96	6
TAP	3	192	7
TAP	4	0	0
TAP	4	96	7
TAP	4	192	0
TAP	5	0	1
TAP	5	96	1
TAP	5	192	0
TAP	5	288	0
TAP	5	288	7
STR	6	0	0
SI_	6	0	0	96	192	3
TAP	8	0	7
TAP	8	192	1
TAP	9	0	0
TAP	9	96	7
TAP	9	192	0
TAP	9	288	7
STR	10	0	7
SI_	10	0	7	96	192	4
TAP	12	0	5
TAP	12	192	6
TAP	13	0	7
BRK	13	192	0
BRK	13	192	7
TAP	14	0	0
TAP	14	96	0
TAP	14	192	1
TAP	15	0	2
TAP	15	96	2
TAP	15	192	3
TAP	16	0	4
TAP	16	96	4
TAP	16	192	5
HLD	17	0	6	192
BRK	17	288	7
STR	18	0	6
SI_	18	0	6	96	192	1
STR	19	0	2
SI_	19	0	2	96	192	5
HLD	20	0	6	288
TAP	21	0	0
TAP	21	0	7
TAP	21	96	0
TAP	21	96	7
BRK	21	192	0
BRK	21	192	7
TAP	22	0	0
TAP	22	192	0
TAP	22	288	7
TAP	23	0	0
TAP	24	0	7
TAP	24	192	6
TAP	25	0	5
TAP	25	192	6
STR	26	0	1
SI_	26	0	1	96	192	6
STR	27	0	5
SI_	27	0	5	96	192	2
TAP	28	0	1
TAP	28	192	2
TAP	29	0	3
TAP	29	96	4
TAP	29	192	3
BRK	29	288	3
BRK	29	288	4
TAP	30	0	1
TAP	30	96	6
TAP	30	192	1
TAP	31	0	0
TAP	31	96	7
TAP	31	192	0
TAP	32	0	1
TAP	32	96	6
TAP	32	192	1
TAP	33	0	1
TAP	33	96	2
TAP	33	192	3
STR	34	0	2
SI_	34	0	2	96	192	5
TAP	35	0	6
TAP	35	96	5
TAP	35	192	4
TAP	36	0	5
TAP	36	192	1
STR	37	0	7
SI_	37	0	7	96	192	4
TAP	38	0	0
TAP	38	96	7
TAP	38	192	0
TAP	39	0	1
TAP	39	96	2
HLD	39	192	3	96
TAP	40	0	4
TAP	40	96	3
TAP	40	192	4
TAP	41	0	5
TAP	41	96	6
HLD	41	192	7	96
STR	42	0	0
SI_	42	0	0	96	192	3
TAP	43	0	0
TAP	43	96	1
HLD	43	192	2	96
TAP	44	0	7
TAP	44	96	0
TAP	44	192	7
TAP	44	288	0
TAP	45	0	0
TAP	45	0	1
TAP	45	96	6
TAP	45	96	7
TAP	45	192	0
TAP	45	192	7
BRK	45	288	1
BRK	45	288	6

T_REC_TAP	88
T_REC_BRK	9
T_REC_XTP	0
T_REC_HLD	5
T_REC_XHO	0
T_REC_STR	9
T_REC_BST	0
T_REC_XST	0
T_REC_TTP	0
T_REC_THO	0
T_REC_SLD	9
T_REC_ALL	120
T_NUM_TAP	97
T_NUM_BRK	9
T_NUM_HLD	5
T_NUM_SLD	9
T_NUM_ALL	120
T_JUDGE_TAP	106
T_JUDGE_HLD	16
T_JUDGE_SLD	9
T_JUDGE_ALL	131
TTM_EACHPAIRS	10
TTM_SCR_TAP	48500
TTM_SCR_BRK	23400
TTM_SCR_HLD	5000
TTM_SCR_SLD	13500
TTM_SCR_ALL	90400
TTM_SCR_S	86850
TTM_SCR_SS	89500
TTM_RAT_ACV	10100

