VERSION	0.00.00	1.03.00
FES_MODE	0
BPM_DEF	131.000	131.000	131.000	131.000
MET_DEF	4	4
RESOLUTION	384
CLK_DEF	384
COMPATIBLE_CODE	MA2

BPM	0	0	131.000
MET	0	0	4	4

TAP	1	96	1
TAP	1	288	1
TAP	2	96	1
TAP	2	288	1
STR	3	0	0
SI_	3	0	0	96	192	4
TAP	3	96	1
TAP	3	288	1
STR	4	0	5
SCR	4	0	5	96	192	0
TAP	5	0	0
HLD	5	0	1	192
TAP	5	96	7
TAP	5	144	7
HLD	5	192	6	192
TAP	5	288	5
TAP	5	336	5
HLD	6	0	1	192
TAP	6	96	2
TAP	6	144	2
HLD	6	192	5	192
TAP	6	288	4
TAP	6	336	4
HLD	7	0	3	192
TAP	7	96	4
TAP	7	144	4
HLD	7	192	5	192
TAP	7	288	4
TAP	7	336	4
HLD	8	0	2	192
TAP	8	96	3
TAP	8	144	3
HLD	8	192	6	192
TAP	8	288	5
TAP	8	336	5
STR	9	0	0
SCR	9	0	0	96	192	3
STR	10	0	0
SCL	10	0	0	96	192	5
STR	11	0	4
SI_	11	0	4	96	48	1
STR	11	0	5
SCR	11	0	5	96	48	0
STR	11	192	0
SI_	11	192	0	96	48	4
STR	11	192	1
SCR	11	192	1	96	48	4
STR	12	0	3
SI_	12	0	3	96	50	7
STR	12	0	7
SCR	12	0	7	96	50	2
STR	12	192	0
SCL	12	192	0	96	48	5
STR	12	192	4
SI_	12	192	4	96	48	0
TAP	13	0	5
HLD	13	0	6	288
TAP	13	96	7
TAP	13	144	0
TAP	13	192	1
TAP	13	240	2
TAP	13	288	3
HLD	14	0	2	288
TAP	14	0	3
TAP	14	96	1
TAP	14	144	0
TAP	14	192	7
TAP	14	240	6
TAP	14	288	5
TAP	15	0	5
HLD	15	0	6	288
TAP	15	96	7
TAP	15	144	0
TAP	15	192	1
TAP	15	240	2
TAP	15	288	3
HLD	16	0	1	288
TAP	16	0	2
TAP	16	96	0
TAP	16	144	7
TAP	16	192	6
TAP	16	240	5
TAP	16	288	4
TAP	17	0	0
TAP	17	0	4
TAP	17	48	1
TAP	17	48	5
TAP	17	96	2
TAP	17	96	6
TAP	17	240	3
TAP	17	240	7
TAP	17	288	2
TAP	17	288	6
TAP	17	336	1
TAP	17	336	5
TAP	18	0	4
TAP	18	48	3
TAP	18	96	2
TAP	18	144	1
TAP	18	192	0
TAP	18	240	0
TAP	18	240	7
TAP	18	288	0
TAP	18	288	7
TAP	19	0	3
TAP	19	0	4
TAP	19	48	3
TAP	19	48	4
TAP	19	96	1
TAP	19	96	6
STR	19	240	0
SCL	19	240	0	96	144	5
STR	19	240	7
SCR	19	240	7	96	144	2
TAP	19	288	1
TAP	19	288	6
HLD	21	0	4	96
HLD	21	96	0	96
HLD	21	192	6	96
HLD	21	288	2	96
HLD	22	0	3	96
HLD	22	96	4	96
HLD	22	192	5	96
TAP	22	288	6
STR	23	0	0
SCR	23	0	0	96	48	3
TAP	23	0	7
TAP	23	192	3
STR	23	192	4
SCR	23	192	4	96	48	7
TAP	24	0	0
STR	24	0	7
SCL	24	0	7	96	48	4
STR	24	192	3
SCL	24	192	3	96	48	0
TAP	24	192	4
TAP	25	0	0
TAP	25	0	7
TAP	25	48	3
TAP	25	72	4
TAP	25	96	3
TAP	25	120	4
TAP	25	144	3
TAP	25	168	4
TAP	25	192	3
TAP	25	240	1
TAP	25	240	6
TAP	25	288	3
TAP	25	288	4
TAP	26	0	3
TAP	26	0	4
TAP	26	48	0
TAP	26	72	7
TAP	26	96	0
TAP	26	120	7
TAP	26	144	0
TAP	26	168	7
TAP	26	192	0
TAP	26	240	0
TAP	26	240	7
TAP	26	288	1
TAP	26	288	6
TAP	27	0	0
TAP	27	0	7
TAP	27	48	4
TAP	27	72	3
TAP	27	96	4
TAP	27	120	3
TAP	27	144	4
TAP	27	168	3
TAP	27	192	4
TAP	27	240	3
TAP	27	240	4
TAP	27	288	1
TAP	27	288	6
TAP	28	0	0
TAP	28	24	7
TAP	28	48	0
TAP	28	72	7
TAP	28	96	1
TAP	28	120	6
TAP	28	144	1
TAP	28	168	6
TAP	28	192	2
TAP	28	240	4
TAP	28	288	1
TAP	28	288	6
TAP	29	0	2
TAP	29	0	5
TAP	29	48	0
TAP	29	72	7
TAP	29	96	0
TAP	29	120	7
TAP	29	144	0
TAP	29	168	7
TAP	29	192	0
TAP	29	240	1
TAP	29	240	6
TAP	29	288	3
TAP	29	288	4
TAP	30	0	3
TAP	30	24	4
TAP	30	48	3
TAP	30	72	4
TAP	30	96	2
TAP	30	120	5
TAP	30	144	2
TAP	30	168	5
TAP	30	192	1
TAP	30	240	7
TAP	30	288	0
TAP	30	288	7
TAP	31	0	1
TAP	31	48	1
TAP	31	48	5
TAP	31	96	6
TAP	31	120	7
TAP	31	144	0
TAP	31	168	1
TAP	31	192	2
TAP	31	240	2
TAP	31	240	7
TAP	31	288	6
TAP	31	336	0
TAP	31	336	5
TAP	32	0	4
TAP	32	24	5
TAP	32	48	6
TAP	32	72	7
TAP	32	96	0
TAP	32	120	1
TAP	32	144	2
TAP	32	168	3
TAP	32	192	4
TAP	32	240	1
TAP	32	240	4
TAP	32	288	2
TAP	32	336	3
TAP	32	336	6
HLD	33	0	7	192
TAP	33	96	0
TAP	33	144	1
TAP	33	192	2
TAP	33	264	0
BRK	33	336	7
TAP	34	48	6
TAP	34	96	4
TAP	34	144	2
TAP	34	192	0
TAP	34	264	6
TAP	34	264	7
TAP	34	336	5
TAP	34	336	6
HLD	35	0	4	192
TAP	35	48	3
TAP	35	96	2
TAP	35	144	1
TAP	35	192	0
TAP	35	264	7
BRK	35	336	0
TAP	36	48	1
TAP	36	96	3
TAP	36	144	5
TAP	36	192	7
TAP	36	264	0
TAP	36	264	1
TAP	36	336	1
TAP	36	336	2
STR	37	0	2
SCL	37	0	2	96	48	7
STR	37	0	3
SI_	37	0	3	96	48	6
STR	37	192	6
SCL	37	192	6	96	48	3
STR	37	192	7
SI_	37	192	7	96	48	2
STR	38	0	0
SI_	38	0	0	96	50	3
STR	38	0	4
SI_	38	0	4	96	50	7
STR	38	192	3
SI_	38	192	3	96	48	0
STR	38	192	7
SI_	38	192	7	96	48	4
TAP	39	0	3
TAP	39	0	4
TAP	39	48	3
TAP	39	48	4
TAP	39	96	1
TAP	39	96	6
STR	39	240	0
SCL	39	240	0	96	144	5
STR	39	240	7
SCR	39	240	7	96	144	2
TAP	39	288	1
TAP	39	288	6
TAP	41	0	5
HLD	41	0	6	144
TAP	41	96	0
HLD	41	144	1	192
TAP	41	240	2
HLD	41	336	7	96
TAP	42	48	6
TAP	42	96	0
TAP	42	120	1
HLD	42	144	2	144
BRK	42	288	1
STR	43	0	3
SCR	43	0	3	96	192	6
STR	43	0	7
SCR	43	0	7	96	192	2
HLD	44	0	6	192
BRK	44	96	0
HLD	44	192	1	192
BRK	44	288	7
TAP	45	0	6
TAP	45	48	1
TAP	45	48	6
TAP	45	96	3
TAP	45	120	4
TAP	45	144	3
TAP	45	168	4
TAP	45	192	3
TAP	45	240	2
TAP	45	240	5
TAP	45	288	0
TAP	45	312	7
TAP	45	336	0
TAP	45	360	7
TAP	46	0	0
TAP	46	48	1
TAP	46	48	6
TAP	46	96	3
TAP	46	120	4
TAP	46	144	3
TAP	46	168	4
TAP	46	192	3
TAP	46	240	2
TAP	46	240	5
TAP	46	288	0
TAP	46	312	7
TAP	46	336	0
TAP	46	360	7
TAP	47	0	0
TAP	47	48	1
TAP	47	48	6
TAP	47	96	5
TAP	47	120	4
TAP	47	144	3
TAP	47	168	2
TAP	47	192	1
TAP	47	240	1
TAP	47	240	6
TAP	47	288	2
TAP	47	312	3
TAP	47	336	4
TAP	47	360	5
TAP	48	0	6
TAP	48	48	0
TAP	48	48	7
TAP	48	96	1
TAP	48	120	0
TAP	48	144	7
TAP	48	168	6
TAP	48	192	5
TAP	48	240	0
TAP	48	240	7
TAP	48	288	6
TAP	48	312	7
TAP	48	336	0
TAP	48	360	1
TAP	49	0	2
TAP	49	48	0
TAP	49	96	1
HLD	49	144	2	144
TAP	49	240	7
BRK	49	288	7
TAP	50	0	7
TAP	50	48	7
TAP	50	96	6
HLD	50	144	5	144
TAP	50	240	0
BRK	50	288	0
HLD	51	0	2	144
TAP	51	0	3
TAP	51	72	4
TAP	51	144	5
HLD	51	192	6	144
TAP	51	264	7
TAP	51	336	0
HLD	52	0	1	144
TAP	52	72	2
TAP	52	144	3
TAP	52	192	4
TAP	52	288	0
TAP	52	288	7
TAP	53	0	6
TAP	53	48	5
HLD	53	72	4	120
TAP	53	192	3
TAP	53	240	2
HLD	53	264	1	120
TAP	54	0	6
TAP	54	48	5
HLD	54	72	4	72
TAP	54	144	3
HLD	54	192	1	72
HLD	54	264	0	72
TAP	55	0	1
TAP	55	48	2
HLD	55	72	3	120
TAP	55	192	4
TAP	55	240	5
HLD	55	264	6	120
TAP	56	0	1
TAP	56	48	2
HLD	56	72	3	72
TAP	56	144	4
HLD	56	192	6	96
BRK	56	288	7
TAP	57	0	0
TAP	57	0	4
TAP	57	72	1
TAP	57	72	5
TAP	57	144	2
TAP	57	144	6
HLD	57	192	3	144
TAP	57	192	7
TAP	57	264	6
TAP	57	336	5
TAP	58	0	0
HLD	58	0	4	288
TAP	58	96	1
TAP	58	192	2
TAP	58	288	3
TAP	59	0	3
TAP	59	0	4
TAP	59	48	3
TAP	59	48	4
TAP	59	96	1
TAP	59	96	6
STR	59	240	0
SCL	59	240	0	96	144	5
STR	59	240	7
SCR	59	240	7	96	144	2
TAP	59	288	1
TAP	59	288	6
TAP	61	96	4
TAP	61	288	3
TAP	62	96	2
STR	62	288	1
SCR	62	288	1	96	288	4

T_REC_TAP	335
T_REC_BRK	8
T_REC_XTP	0
T_REC_HLD	43
T_REC_XHO	0
T_REC_STR	33
T_REC_BST	0
T_REC_XST	0
T_REC_TTP	0
T_REC_THO	0
T_REC_SLD	33
T_REC_ALL	452
T_NUM_TAP	368
T_NUM_BRK	8
T_NUM_HLD	43
T_NUM_SLD	33
T_NUM_ALL	452
T_JUDGE_TAP	376
T_JUDGE_HLD	144
T_JUDGE_SLD	33
T_JUDGE_ALL	553
TTM_EACHPAIRS	80
TTM_SCR_TAP	184000
TTM_SCR_BRK	20800
TTM_SCR_HLD	43000
TTM_SCR_SLD	49500
TTM_SCR_ALL	297300
TTM_SCR_S	287650
TTM_SCR_SS	296500
TTM_RAT_ACV	10026

