VERSION	0.00.00	1.03.00
FES_MODE	0
BPM_DEF	131.000	131.000	131.000	131.000
MET_DEF	4	4
RESOLUTION	384
CLK_DEF	384
COMPATIBLE_CODE	MA2

BPM	0	0	131.000
MET	0	0	4	4

TAP	1	96	1
TAP	1	288	1
TAP	2	96	1
TAP	2	288	1
TAP	3	96	1
STR	3	288	1
SCL	3	288	1	96	192	6
HLD	5	0	5	96
HLD	5	96	3	96
HLD	5	192	1	96
TAP	5	288	2
HLD	6	0	2	96
HLD	6	96	4	96
HLD	6	192	6	96
TAP	6	288	5
TAP	7	0	0
HLD	7	0	7	96
TAP	7	96	6
HLD	7	192	0	96
TAP	7	192	7
TAP	7	288	1
TAP	8	0	1
HLD	8	0	6	96
TAP	8	96	4
HLD	8	192	1	96
TAP	8	192	6
TAP	8	288	3
HLD	9	0	4	288
HLD	9	192	3	288
HLD	10	0	5	288
HLD	10	192	2	96
STR	11	0	0
SCR	11	0	0	96	192	3
STR	11	0	7
SCL	11	0	7	96	192	4
STR	12	0	3
SI_	12	0	3	96	192	0
STR	12	0	4
SI_	12	0	4	96	192	7
TAP	13	0	0
TAP	13	0	1
TAP	13	96	0
TAP	13	96	1
TAP	13	192	6
TAP	13	192	7
TAP	13	288	6
TAP	13	288	7
TAP	14	0	0
TAP	14	0	1
TAP	14	96	0
TAP	14	96	1
TAP	14	192	6
TAP	14	192	7
TAP	14	288	6
TAP	14	288	7
TAP	15	0	2
TAP	15	0	3
TAP	15	96	2
TAP	15	96	3
TAP	15	192	4
TAP	15	192	5
TAP	15	288	4
TAP	15	288	5
TAP	16	0	2
TAP	16	0	3
TAP	16	96	2
TAP	16	96	3
TAP	16	192	4
TAP	16	192	5
TAP	16	288	4
TAP	16	288	5
TAP	17	0	3
TAP	17	0	4
TAP	17	48	3
TAP	17	48	4
TAP	17	96	3
TAP	17	96	4
TAP	17	240	1
TAP	17	240	6
TAP	17	288	1
TAP	17	288	6
TAP	17	336	1
TAP	17	336	6
TAP	18	0	0
TAP	18	0	7
TAP	18	48	6
TAP	18	96	1
TAP	18	144	5
TAP	18	192	2
TAP	18	240	4
TAP	18	288	3
TAP	19	0	2
TAP	19	0	5
TAP	19	48	2
TAP	19	48	5
TAP	19	96	2
TAP	19	96	5
TAP	19	240	0
TAP	19	240	7
TAP	19	288	0
TAP	19	288	7
BRK	19	336	2
BRK	19	336	6
TAP	21	0	0
TAP	21	96	1
TAP	21	192	2
TAP	21	288	3
TAP	22	0	4
TAP	22	96	5
TAP	22	192	6
TAP	22	288	7
TAP	23	0	7
TAP	23	96	6
TAP	23	192	5
TAP	23	288	4
TAP	24	0	3
TAP	24	96	2
TAP	24	192	1
TAP	24	288	0
STR	24	288	7
SCR	24	288	7	96	96	2
TAP	25	192	3
TAP	25	240	4
STR	25	288	5
SCL	25	288	5	96	96	2
TAP	26	192	1
TAP	26	240	0
TAP	26	288	7
HLD	27	0	0	96
TAP	27	0	7
TAP	27	96	1
TAP	27	192	0
HLD	27	192	7	96
TAP	27	288	6
HLD	28	0	1	96
TAP	28	0	6
TAP	28	96	0
TAP	28	192	1
HLD	28	192	6	96
STR	28	288	7
SCR	28	288	7	96	96	2
STR	29	96	7
SCL	29	96	7	96	96	4
TAP	29	288	7
HLD	30	0	0	96
TAP	30	0	7
HLD	30	96	1	96
HLD	30	192	2	96
STR	30	288	3
SI_	30	288	3	96	96	7
STR	31	96	0
SCR	31	96	0	96	96	3
STR	31	288	0
SCL	31	288	0	96	96	5
TAP	32	96	0
TAP	32	192	1
BRK	32	288	2
TAP	33	0	0
TAP	33	0	7
TAP	33	96	1
TAP	33	96	6
TAP	33	192	0
TAP	33	192	1
TAP	33	288	1
TAP	33	288	6
TAP	34	0	0
TAP	34	0	7
TAP	34	96	1
TAP	34	96	6
TAP	34	192	6
TAP	34	192	7
TAP	34	288	1
TAP	34	288	6
TAP	35	0	3
TAP	35	0	4
TAP	35	96	2
TAP	35	96	5
TAP	35	192	2
TAP	35	192	3
TAP	35	288	2
TAP	35	288	5
TAP	36	0	3
TAP	36	0	4
TAP	36	96	2
TAP	36	96	5
TAP	36	192	4
TAP	36	192	5
TAP	36	288	2
TAP	36	288	5
TAP	37	0	3
TAP	37	0	4
TAP	37	96	2
TAP	37	96	3
TAP	37	192	4
TAP	37	192	5
TAP	37	288	2
TAP	37	288	5
TAP	38	0	3
TAP	38	0	4
STR	38	96	0
SCR	38	96	0	96	96	3
STR	38	96	7
SCL	38	96	7	96	96	4
TAP	39	0	3
TAP	39	0	4
TAP	39	48	3
TAP	39	48	4
TAP	39	96	3
TAP	39	96	4
TAP	39	240	0
TAP	39	240	7
TAP	39	288	0
TAP	39	288	7
BRK	39	336	2
BRK	39	336	6
HLD	41	0	7	384
TAP	41	96	0
TAP	41	192	1
TAP	41	288	2
HLD	42	0	3	384
TAP	42	96	4
TAP	42	192	5
TAP	42	288	6
TAP	43	0	7
TAP	43	96	0
TAP	43	192	1
STR	43	288	2
SCL	43	288	2	96	192	7
TAP	45	0	1
TAP	45	0	5
TAP	45	96	2
TAP	45	96	6
TAP	45	192	0
TAP	45	240	0
TAP	45	288	0
TAP	46	0	2
TAP	46	0	6
TAP	46	96	1
TAP	46	96	5
TAP	46	192	7
TAP	46	240	7
TAP	46	288	7
TAP	47	0	1
TAP	47	0	5
TAP	47	96	3
TAP	47	96	7
TAP	47	192	0
TAP	47	240	0
TAP	47	288	0
TAP	48	0	2
TAP	48	0	6
TAP	48	96	0
TAP	48	96	4
TAP	48	192	7
TAP	48	240	7
TAP	48	288	7
HLD	49	0	0	288
TAP	49	0	4
TAP	49	96	6
TAP	49	192	7
TAP	49	288	1
HLD	50	0	3	288
TAP	50	0	7
TAP	50	96	5
TAP	50	192	4
TAP	50	288	2
TAP	51	0	2
TAP	51	0	5
TAP	51	96	5
TAP	51	96	6
TAP	51	192	1
TAP	51	192	2
TAP	51	288	6
TAP	51	288	7
TAP	52	0	0
TAP	52	0	1
TAP	52	96	0
BRK	52	96	7
BRK	52	192	1
TAP	52	192	6
TAP	52	288	2
BRK	52	288	5
HLD	53	0	0	96
TAP	53	0	7
TAP	53	96	1
TAP	53	192	1
HLD	53	192	6	96
TAP	53	288	5
HLD	54	0	2	96
TAP	54	0	5
HLD	54	96	3	96
HLD	54	192	4	96
BRK	54	288	5
TAP	55	0	2
HLD	55	0	5	96
TAP	55	96	4
HLD	55	192	1	96
TAP	55	192	6
TAP	55	288	2
TAP	56	0	1
HLD	56	0	6	96
HLD	56	96	7	96
HLD	56	192	0	96
BRK	56	288	1
TAP	57	0	0
HLD	57	0	2	96
HLD	57	96	6	96
HLD	57	192	4	96
TAP	57	288	3
HLD	58	0	1	96
TAP	58	0	3
HLD	58	96	5	96
HLD	58	192	7	96
TAP	58	288	0
TAP	59	0	2
TAP	59	0	5
TAP	59	48	2
TAP	59	48	5
TAP	59	96	2
TAP	59	96	5
TAP	59	240	0
TAP	59	240	7
TAP	59	288	0
TAP	59	288	7
BRK	59	336	2
BRK	59	336	6
TAP	61	96	4
TAP	61	288	3
TAP	62	96	2
STR	62	288	1
SCR	62	288	1	96	288	4

T_REC_TAP	246
T_REC_BRK	12
T_REC_XTP	0
T_REC_HLD	41
T_REC_XHO	0
T_REC_STR	16
T_REC_BST	0
T_REC_XST	0
T_REC_TTP	0
T_REC_THO	0
T_REC_SLD	16
T_REC_ALL	331
T_NUM_TAP	262
T_NUM_BRK	12
T_NUM_HLD	41
T_NUM_SLD	16
T_NUM_ALL	331
T_JUDGE_TAP	274
T_JUDGE_HLD	114
T_JUDGE_SLD	16
T_JUDGE_ALL	404
TTM_EACHPAIRS	101
TTM_SCR_TAP	131000
TTM_SCR_BRK	31200
TTM_SCR_HLD	41000
TTM_SCR_SLD	24000
TTM_SCR_ALL	227200
TTM_SCR_S	219250
TTM_SCR_SS	226000
TTM_RAT_ACV	10053

