VERSION	0.00.00	1.03.00
FES_MODE	0
BPM_DEF	131.000	131.000	131.000	131.000
MET_DEF	4	4
RESOLUTION	384
CLK_DEF	384
COMPATIBLE_CODE	MA2

BPM	0	0	131.000
MET	0	0	4	4

TAP	1	96	1
TAP	1	288	1
TAP	2	96	1
TAP	2	288	1
TAP	3	96	1
STR	3	288	1
SCL	3	288	1	96	192	6
TAP	5	0	0
TAP	5	0	7
TAP	5	96	6
TAP	5	192	5
TAP	5	288	1
TAP	5	288	6
TAP	6	0	1
TAP	6	0	6
TAP	6	96	2
TAP	6	192	3
TAP	6	288	2
TAP	6	288	5
TAP	7	0	3
TAP	7	0	4
TAP	7	96	5
TAP	7	192	6
TAP	7	288	2
TAP	7	288	5
TAP	8	0	2
TAP	8	0	5
TAP	8	96	1
TAP	8	192	0
TAP	8	288	1
TAP	8	288	6
TAP	9	0	7
TAP	9	96	1
TAP	9	96	6
TAP	9	192	1
TAP	9	288	2
TAP	9	288	5
TAP	10	0	5
TAP	10	96	3
TAP	10	96	4
TAP	10	192	2
TAP	10	288	3
TAP	10	288	4
STR	11	0	5
SCR	11	0	5	96	96	0
STR	12	0	2
SCL	12	0	2	96	96	7
TAP	13	0	0
TAP	13	96	0
TAP	13	96	1
TAP	13	192	0
TAP	13	288	0
TAP	13	288	1
TAP	14	0	7
TAP	14	96	6
TAP	14	96	7
TAP	14	192	7
TAP	14	288	6
TAP	14	288	7
TAP	15	0	3
TAP	15	96	2
TAP	15	96	3
TAP	15	192	3
TAP	15	288	2
TAP	15	288	3
TAP	16	0	4
TAP	16	96	4
TAP	16	96	5
TAP	16	192	4
TAP	16	288	4
TAP	16	288	5
TAP	17	0	1
TAP	17	0	6
TAP	17	96	1
TAP	17	96	6
TAP	18	0	0
TAP	18	96	1
TAP	18	192	2
TAP	18	288	3
TAP	19	0	2
TAP	19	48	2
TAP	19	96	2
TAP	19	240	7
TAP	19	288	7
BRK	19	336	7
TAP	21	96	5
TAP	21	288	5
TAP	22	96	4
TAP	22	288	4
TAP	23	96	3
TAP	23	288	3
TAP	24	96	2
TAP	24	288	2
HLD	25	0	1	96
TAP	25	192	7
TAP	25	240	7
TAP	25	288	7
HLD	26	0	0	96
TAP	26	192	6
TAP	26	240	6
TAP	26	288	6
STR	27	0	5
SI_	27	0	5	96	96	1
STR	28	0	2
SI_	28	0	2	96	96	6
TAP	29	0	7
TAP	29	96	6
TAP	29	96	7
TAP	29	192	7
TAP	29	288	6
TAP	29	288	7
TAP	30	0	0
TAP	30	96	0
TAP	30	96	1
TAP	30	192	1
TAP	30	192	2
TAP	30	288	2
TAP	30	288	3
HLD	31	0	1	288
HLD	32	0	0	288
TAP	33	0	7
TAP	33	96	6
TAP	33	192	7
TAP	33	240	7
TAP	33	288	7
TAP	34	0	2
TAP	34	96	3
TAP	34	192	2
TAP	34	240	2
TAP	34	288	2
TAP	35	0	0
TAP	35	96	1
TAP	35	192	0
TAP	35	240	0
TAP	35	288	0
TAP	36	0	4
TAP	36	96	5
TAP	36	192	4
TAP	36	240	4
TAP	36	288	4
TAP	37	0	3
TAP	37	96	2
TAP	37	96	3
TAP	37	192	2
TAP	37	288	1
TAP	37	288	2
TAP	38	0	1
TAP	38	96	0
TAP	38	96	1
TAP	38	192	0
TAP	38	288	0
TAP	38	288	7
TAP	39	0	5
TAP	39	48	5
TAP	39	96	5
TAP	39	240	0
TAP	39	288	0
BRK	39	336	0
TAP	41	96	2
TAP	41	288	4
TAP	42	96	6
STR	42	288	0
SCL	42	288	0	96	192	5
HLD	44	0	5	288
HLD	45	0	6	96
TAP	45	96	7
TAP	45	192	0
TAP	45	240	1
TAP	45	288	0
HLD	46	0	7	96
TAP	46	96	6
TAP	46	192	5
TAP	46	240	4
TAP	46	288	5
HLD	47	0	6	96
TAP	47	96	7
TAP	47	192	0
TAP	47	240	1
TAP	47	288	0
HLD	48	0	1	96
TAP	48	96	2
TAP	48	192	3
TAP	48	240	4
TAP	48	288	3
TAP	49	0	2
TAP	49	96	1
TAP	49	192	0
TAP	49	288	0
TAP	49	288	7
TAP	50	0	1
TAP	50	96	2
TAP	50	192	3
TAP	50	288	3
TAP	50	288	4
HLD	51	0	2	192
HLD	51	192	1	192
HLD	52	0	0	96
TAP	52	192	0
TAP	52	192	7
TAP	52	288	1
TAP	52	288	6
HLD	53	0	1	96
TAP	53	96	0
TAP	53	192	7
TAP	53	240	6
TAP	53	288	7
HLD	54	0	0	96
TAP	54	96	1
TAP	54	192	2
TAP	54	240	3
TAP	54	288	2
HLD	55	0	1	96
TAP	55	96	0
TAP	55	192	7
TAP	55	240	6
TAP	55	288	7
HLD	56	0	6	96
TAP	56	96	5
TAP	56	192	4
TAP	56	240	3
TAP	56	288	4
TAP	57	0	4
TAP	57	0	5
TAP	57	96	6
TAP	57	192	6
TAP	57	192	7
TAP	57	288	0
TAP	58	0	0
TAP	58	0	1
TAP	58	96	0
TAP	58	192	7
TAP	58	288	6
TAP	59	0	5
TAP	59	48	5
TAP	59	96	5
TAP	59	240	0
TAP	59	288	0
BRK	59	336	0
TAP	61	96	4
TAP	61	288	3
TAP	62	96	2
STR	62	288	1
SCR	62	288	1	96	288	4

T_REC_TAP	210
T_REC_BRK	3
T_REC_XTP	0
T_REC_HLD	16
T_REC_XHO	0
T_REC_STR	7
T_REC_BST	0
T_REC_XST	0
T_REC_TTP	0
T_REC_THO	0
T_REC_SLD	7
T_REC_ALL	243
T_NUM_TAP	217
T_NUM_BRK	3
T_NUM_HLD	16
T_NUM_SLD	7
T_NUM_ALL	243
T_JUDGE_TAP	220
T_JUDGE_HLD	48
T_JUDGE_SLD	7
T_JUDGE_ALL	275
TTM_EACHPAIRS	38
TTM_SCR_TAP	108500
TTM_SCR_BRK	7800
TTM_SCR_HLD	16000
TTM_SCR_SLD	10500
TTM_SCR_ALL	142800
TTM_SCR_S	138250
TTM_SCR_SS	142500
TTM_RAT_ACV	10021

