VERSION	0.00.00	1.03.00
FES_MODE	0
BPM_DEF	131.000	131.000	131.000	131.000
MET_DEF	4	4
RESOLUTION	384
CLK_DEF	384
COMPATIBLE_CODE	MA2

BPM	0	0	131.000
MET	0	0	4	4

TAP	1	0	0
TAP	2	0	0
TAP	3	0	7
TAP	3	192	7
STR	4	0	7
SI_	4	0	7	96	192	4
TAP	5	0	5
TAP	5	192	5
TAP	6	0	6
TAP	6	192	6
TAP	7	0	7
TAP	7	192	7
TAP	8	0	0
TAP	8	192	0
TAP	9	0	1
TAP	9	192	1
TAP	10	0	2
TAP	10	192	2
TAP	11	0	3
TAP	11	192	3
TAP	12	0	4
TAP	12	192	4
STR	13	0	5
SI_	13	0	5	96	193	2
TAP	14	0	1
TAP	14	192	0
STR	15	0	7
SI_	15	0	7	96	192	4
TAP	16	0	3
TAP	16	192	3
TAP	17	0	4
TAP	17	96	4
TAP	18	0	5
TAP	18	96	5
TAP	19	0	6
TAP	19	96	6
TAP	19	240	7
BRK	19	336	7
HLD	21	0	0	288
HLD	22	0	1	288
HLD	23	0	2	288
TAP	25	0	1
TAP	25	96	1
TAP	25	192	2
TAP	26	0	2
TAP	26	96	2
TAP	26	192	3
TAP	27	0	3
TAP	27	96	3
TAP	27	192	4
TAP	28	0	4
TAP	28	96	4
TAP	28	192	5
STR	29	0	5
SI_	29	0	5	96	192	2
STR	30	0	1
SI_	30	0	1	96	192	6
STR	31	0	7
SI_	31	0	7	96	192	4
STR	32	0	0
SI_	32	0	0	96	192	3
TAP	33	0	0
TAP	33	192	0
TAP	33	288	7
TAP	34	0	6
TAP	34	192	5
TAP	34	288	6
TAP	35	0	7
TAP	35	192	0
TAP	35	288	1
TAP	36	0	2
TAP	36	192	3
TAP	36	288	4
TAP	37	0	3
TAP	37	192	2
TAP	37	288	1
TAP	38	0	0
TAP	38	192	7
TAP	38	288	0
TAP	39	0	1
TAP	39	0	6
TAP	39	96	1
TAP	39	96	6
TAP	39	240	0
TAP	39	240	7
BRK	39	336	0
TAP	39	336	7
HLD	41	0	7	288
HLD	42	0	0	288
HLD	43	0	6	288
HLD	44	0	1	288
TAP	45	0	2
TAP	45	192	2
TAP	46	0	3
TAP	46	192	3
TAP	47	0	4
TAP	47	192	4
TAP	48	0	3
TAP	48	96	4
TAP	48	192	3
HLD	49	0	4	288
HLD	50	0	5	288
TAP	51	0	6
TAP	51	191	6
TAP	52	0	7
TAP	52	96	0
TAP	52	192	7
HLD	53	0	0	97
TAP	53	192	0
TAP	53	288	0
HLD	54	0	1	96
TAP	54	192	1
TAP	54	288	1
HLD	55	0	2	96
TAP	55	192	2
TAP	55	288	2
HLD	56	0	3	96
HLD	56	192	4	96
TAP	57	0	3
TAP	57	96	4
TAP	57	192	2
TAP	57	288	5
TAP	58	0	1
TAP	58	96	6
TAP	58	192	0
TAP	58	288	7
TAP	59	0	1
TAP	59	0	6
TAP	59	96	1
TAP	59	96	6
TAP	59	240	0
TAP	59	240	7
BRK	59	336	0
BRK	59	336	7

T_REC_TAP	102
T_REC_BRK	4
T_REC_XTP	0
T_REC_HLD	14
T_REC_XHO	0
T_REC_STR	7
T_REC_BST	0
T_REC_XST	0
T_REC_TTP	0
T_REC_THO	0
T_REC_SLD	7
T_REC_ALL	134
T_NUM_TAP	109
T_NUM_BRK	4
T_NUM_HLD	14
T_NUM_SLD	7
T_NUM_ALL	134
T_JUDGE_TAP	113
T_JUDGE_HLD	65
T_JUDGE_SLD	7
T_JUDGE_ALL	185
TTM_EACHPAIRS	8
TTM_SCR_TAP	54500
TTM_SCR_BRK	10400
TTM_SCR_HLD	14000
TTM_SCR_SLD	10500
TTM_SCR_ALL	89400
TTM_SCR_S	86350
TTM_SCR_SS	89000
TTM_RAT_ACV	10044

