VERSION	0.00.00	1.03.00
FES_MODE	0
BPM_DEF	147.000	147.000	147.000	147.000
MET_DEF	4	4
RESOLUTION	384
CLK_DEF	384
COMPATIBLE_CODE	MA2

BPM	0	0	147.000
MET	0	0	4	4

TAP	1	0	2
TAP	1	72	3
TAP	1	144	4
TAP	1	192	5
TAP	1	264	4
TAP	1	336	3
TAP	2	0	4
TAP	2	72	3
TAP	2	144	2
TAP	2	192	1
TAP	2	264	2
TAP	2	336	3
TAP	3	0	4
TAP	3	72	5
TAP	3	144	6
TAP	3	192	7
TAP	3	264	5
TAP	3	336	4
TAP	3	360	3
TAP	4	0	2
TAP	4	24	2
TAP	4	72	3
TAP	4	120	4
TAP	4	144	5
STR	4	192	6
SI_	4	192	6	96	192	2
STR	5	192	1
SI_	5	192	1	96	192	5
TAP	6	192	1
TAP	6	240	3
TAP	6	288	2
TAP	6	336	4
TAP	7	0	3
TAP	7	48	5
TAP	7	96	4
TAP	7	144	6
TAP	7	192	1
TAP	7	240	3
TAP	7	288	2
TAP	7	336	4
TAP	8	0	3
TAP	8	48	5
TAP	8	96	6
TAP	8	144	4
TAP	8	192	1
TAP	8	240	5
TAP	8	288	2
TAP	8	336	6
TAP	9	0	3
TAP	9	48	5
TAP	9	96	4
TAP	9	144	6
TAP	9	192	1
TAP	9	240	5
TAP	9	288	2
TAP	9	336	6
TAP	10	0	3
TAP	10	48	5
TAP	10	96	6
TAP	10	144	4
TAP	10	192	6
TAP	10	240	4
TAP	10	288	5
TAP	10	336	3
TAP	11	0	4
TAP	11	48	2
TAP	11	96	3
TAP	11	144	1
TAP	11	192	6
TAP	11	240	4
TAP	11	288	5
TAP	11	336	3
TAP	12	0	4
TAP	12	48	2
TAP	12	96	1
TAP	12	144	3
TAP	12	192	6
TAP	12	240	2
TAP	12	288	5
TAP	12	336	1
TAP	13	0	4
TAP	13	48	2
TAP	13	96	3
TAP	13	144	1
TAP	13	192	6
TAP	13	240	2
TAP	13	288	5
TAP	13	336	1
TAP	14	0	4
TAP	14	48	2
TAP	14	96	1
TAP	14	144	3
HLD	14	192	1	96
TAP	14	288	4
TAP	14	336	5
HLD	15	0	6	96
TAP	15	96	0
TAP	15	144	1
HLD	15	192	2	96
TAP	15	288	1
TAP	15	336	0
HLD	16	0	7	96
TAP	16	96	3
TAP	16	144	2
HLD	16	192	1	96
TAP	16	288	4
TAP	16	336	5
HLD	17	0	6	96
TAP	17	96	5
TAP	17	144	7
HLD	17	192	0	96
TAP	17	288	7
TAP	17	336	6
HLD	18	0	5	96
TAP	18	96	3
TAP	18	144	2
STR	18	192	1
SI_	18	192	1	96	96	5
TAP	18	336	7
STR	19	0	6
SI_	19	0	6	96	96	2
TAP	19	144	7
STR	19	192	0
SI_	19	192	0	96	96	4
TAP	19	336	0
STR	20	0	7
SI_	20	0	7	96	96	3
TAP	20	144	0
STR	20	192	1
SI_	20	192	1	96	96	5
TAP	20	336	7
STR	21	0	6
SI_	21	0	6	96	96	2
TAP	21	144	3
STR	21	192	3
SI_	21	192	3	96	96	7
TAP	21	336	4
HLD	22	0	4	96
STR	22	96	0
SI_	22	96	0	96	96	4
TAP	22	192	2
TAP	22	240	1
STR	22	288	0
SI_	22	288	0	96	96	3
TAP	23	0	6
TAP	23	48	7
STR	23	96	0
SI_	23	96	0	96	96	5
TAP	23	192	2
TAP	23	240	1
STR	23	288	0
SI_	23	288	0	96	96	4
TAP	24	0	6
TAP	24	48	7
HLD	24	96	0	96
HLD	24	192	1	96
HLD	24	288	2	96
HLD	25	0	3	96
HLD	25	96	4	96
STR	25	192	5
SI_	25	192	5	96	96	1
TAP	25	336	2
HLD	26	0	2	96
STR	26	96	7
SI_	26	96	7	96	96	3
TAP	26	192	1
TAP	26	240	0
STR	26	288	7
SI_	26	288	7	96	96	4
TAP	27	0	5
TAP	27	48	6
STR	27	96	7
SI_	27	96	7	96	96	2
TAP	27	192	1
TAP	27	240	0
STR	27	288	7
SI_	27	288	7	96	96	3
TAP	28	0	5
TAP	28	48	6
HLD	28	96	7	96
TAP	28	192	3
TAP	28	216	4
TAP	28	240	3
TAP	28	288	5
TAP	28	312	2
TAP	28	336	5
TAP	29	0	1
TAP	29	24	6
TAP	29	48	1
TAP	29	96	7
TAP	29	120	0
TAP	29	144	7
HLD	29	192	0	72
TAP	29	264	4
BRK	29	336	3
BRK	29	336	7
BRK	30	0	1
BRK	30	0	5
TAP	30	192	3
TAP	30	192	5
TAP	30	240	2
TAP	30	240	4
TAP	30	288	3
TAP	30	312	5
TAP	30	360	1
TAP	31	24	1
TAP	31	48	2
TAP	31	96	1
TAP	31	144	2
TAP	31	192	2
TAP	31	192	4
TAP	31	240	3
TAP	31	240	5
TAP	31	288	4
TAP	31	312	2
TAP	31	360	6
TAP	32	24	6
TAP	32	48	5
TAP	32	96	6
TAP	32	144	5
TAP	32	192	3
TAP	32	192	5
TAP	32	240	2
TAP	32	240	4
STR	32	288	3
SCL	32	288	3	96	96	0
TAP	32	312	5
TAP	33	48	4
TAP	33	96	5
TAP	33	144	6
STR	33	192	7
SCL	33	192	7	96	192	4
TAP	34	240	3
TAP	34	288	2
TAP	34	336	1
STR	35	0	0
SI_	35	0	0	96	96	5
TAP	35	72	3
TAP	35	144	2
STR	35	192	1
SI_	35	192	1	96	96	4
TAP	35	264	0
TAP	35	336	7
STR	36	0	6
SCL	36	0	6	96	96	3
HLD	36	192	2	192
TAP	36	264	1
TAP	36	336	0
HLD	37	0	7	192
TAP	37	96	5
HLD	37	192	0	288
STR	37	336	2
SCR	37	336	2	96	96	5
TAP	37	360	2
TAP	38	0	2
TAP	38	192	1
TAP	38	192	7
TAP	38	240	0
TAP	38	240	6
STR	38	288	7
SI_	38	288	7	96	48	2
HLD	38	312	7	168
TAP	39	192	0
TAP	39	192	6
TAP	39	240	1
TAP	39	240	7
STR	39	288	0
SI_	39	288	0	96	48	5
HLD	39	312	0	168
TAP	40	192	1
TAP	40	192	7
TAP	40	240	0
TAP	40	240	6
STR	40	288	7
SI_	40	288	7	96	48	2
HLD	40	312	7	552
STR	41	96	1
SI_	41	96	1	96	48	5
STR	41	288	6
SCL	41	288	6	96	192	3
TAP	42	192	2
TAP	42	240	3
HLD	42	288	3	96
HLD	42	336	4	96
TAP	43	48	5
TAP	43	96	6
HLD	43	144	6	96
HLD	43	192	7	192
TAP	43	288	1
HLD	44	0	1	480
TAP	44	72	3
TAP	44	144	3
HLD	44	192	3	480
HLD	45	192	6	384
HLD	46	0	1	192
TAP	46	288	4
TAP	47	96	4
TAP	47	288	4
TAP	48	96	4
TAP	48	120	3
TAP	48	144	2
TAP	48	168	1
HLD	48	192	0	72
TAP	48	264	1
TAP	48	288	7
HLD	48	336	4	144
HLD	49	192	7	72
TAP	49	264	6
TAP	49	288	0
HLD	49	336	3	144
HLD	50	192	0	72
TAP	50	264	7
TAP	50	288	1
HLD	50	336	4	144
TAP	51	144	7
TAP	51	168	7
HLD	51	192	7	72
TAP	51	264	0
TAP	51	288	6
HLD	51	336	3	144
TAP	52	192	1
HLD	52	192	5	72
TAP	52	264	6
TAP	52	288	4
HLD	52	336	1	144
HLD	52	336	3	144
HLD	53	192	2	72
TAP	53	192	6
TAP	53	264	1
TAP	53	288	3
HLD	53	336	4	144
HLD	53	336	6	144
HLD	54	192	0	72
TAP	54	192	4
TAP	54	264	2
TAP	54	288	6
HLD	54	336	1	240
HLD	54	336	5	240
TAP	56	192	3
TAP	56	192	5
TAP	56	240	2
TAP	56	240	4
TAP	56	288	3
TAP	56	312	5
TAP	56	360	1
TAP	57	24	1
TAP	57	48	2
TAP	57	96	1
TAP	57	144	2
TAP	57	192	2
TAP	57	192	4
TAP	57	240	3
TAP	57	240	5
TAP	57	288	4
TAP	57	312	2
TAP	57	360	6
TAP	58	24	6
TAP	58	48	5
TAP	58	96	6
TAP	58	144	5
TAP	58	192	3
TAP	58	192	5
TAP	58	240	2
TAP	58	240	4
STR	58	288	3
SCL	58	288	3	96	96	0
TAP	58	312	5
TAP	59	48	4
TAP	59	96	5
TAP	59	144	6
STR	59	192	7
SCL	59	192	7	96	192	4
TAP	60	240	3
TAP	60	288	2
TAP	60	336	1
STR	61	0	0
SI_	61	0	0	96	96	5
TAP	61	72	3
TAP	61	144	2
STR	61	192	1
SI_	61	192	1	96	96	4
TAP	61	264	0
TAP	61	336	7
STR	62	0	6
SCL	62	0	6	96	96	3
HLD	62	192	2	192
TAP	62	264	1
TAP	62	336	0
HLD	63	0	7	192
TAP	63	96	5
HLD	63	192	0	288
STR	63	336	2
SCR	63	336	2	96	96	5
TAP	63	360	2
TAP	64	0	2
TAP	64	192	1
TAP	64	192	7
TAP	64	240	0
TAP	64	240	6
TAP	64	288	7
TAP	64	312	1
BRK	64	360	5
TAP	65	24	5
TAP	65	48	7
TAP	65	96	6
TAP	65	144	7
TAP	65	192	0
TAP	65	192	6
TAP	65	240	1
TAP	65	240	7
TAP	65	288	0
TAP	65	312	6
BRK	65	360	2
TAP	66	24	2
TAP	66	48	0
TAP	66	96	1
TAP	66	144	0
TAP	66	192	1
TAP	66	192	7
TAP	66	240	0
TAP	66	240	6
STR	66	288	7
SCL	66	288	7	96	96	4
TAP	66	312	1
TAP	67	48	0
TAP	67	96	1
TAP	67	144	2
STR	67	192	3
SCL	67	192	3	96	192	0
TAP	68	192	5
TAP	68	240	4
HLD	68	288	4	96
HLD	68	336	3	96
TAP	69	48	2
TAP	69	96	1
HLD	69	144	1	96
HLD	69	192	0	192
TAP	69	288	6
HLD	70	0	6	480
TAP	70	72	4
TAP	70	144	4
HLD	70	192	4	480
HLD	71	192	1	288
HLD	72	0	6	192
TAP	72	192	4
TAP	72	264	4
TAP	72	288	5
TAP	72	336	3
TAP	73	24	3
TAP	73	48	2
TAP	73	96	4
TAP	73	144	3
TAP	73	192	5
TAP	73	264	5
TAP	73	288	6
TAP	73	336	2
TAP	74	24	2
TAP	74	48	1
TAP	74	96	5
TAP	74	144	2
TAP	74	192	6
TAP	74	264	6
TAP	74	288	7
TAP	74	336	1
TAP	75	24	1
TAP	75	48	0
TAP	75	96	6
TAP	75	144	1
BRK	75	192	0
BRK	75	192	7
BRK	75	216	0
BRK	75	216	7
BRK	75	240	0
BRK	75	240	7

T_REC_TAP	329
T_REC_BRK	12
T_REC_XTP	0
T_REC_HLD	59
T_REC_XHO	0
T_REC_STR	37
T_REC_BST	0
T_REC_XST	0
T_REC_TTP	0
T_REC_THO	0
T_REC_SLD	37
T_REC_ALL	474
T_NUM_TAP	366
T_NUM_BRK	12
T_NUM_HLD	59
T_NUM_SLD	37
T_NUM_ALL	474
T_JUDGE_TAP	378
T_JUDGE_HLD	212
T_JUDGE_SLD	37
T_JUDGE_ALL	627
TTM_EACHPAIRS	35
TTM_SCR_TAP	183000
TTM_SCR_BRK	31200
TTM_SCR_HLD	59000
TTM_SCR_SLD	55500
TTM_SCR_ALL	328700
TTM_SCR_S	317700
TTM_SCR_SS	327500
TTM_RAT_ACV	10036

