VERSION	0.00.00	1.03.00
FES_MODE	0
BPM_DEF	147.000	147.000	147.000	147.000
MET_DEF	4	4
RESOLUTION	384
CLK_DEF	384
COMPATIBLE_CODE	MA2

BPM	0	0	147.000
MET	0	0	4	4

TAP	1	0	5
TAP	1	72	3
TAP	1	144	1
TAP	1	192	2
TAP	2	0	2
TAP	2	72	4
TAP	2	144	6
TAP	2	192	5
TAP	3	0	5
TAP	3	72	3
TAP	3	144	1
TAP	3	192	2
TAP	4	0	1
TAP	4	72	0
TAP	4	120	7
TAP	4	144	7
STR	4	192	6
SCR	4	192	6	96	192	1
HLD	5	192	0	288
HLD	6	192	2	192
TAP	7	48	2
TAP	7	96	3
TAP	7	144	4
HLD	7	192	5	192
TAP	8	48	5
TAP	8	96	4
TAP	8	144	3
HLD	8	192	2	192
TAP	9	96	2
HLD	9	192	3	96
HLD	10	0	4	96
HLD	10	192	5	192
TAP	11	48	7
TAP	11	96	0
TAP	11	144	1
HLD	11	192	2	192
TAP	12	48	0
TAP	12	96	7
TAP	12	144	6
HLD	12	192	5	192
TAP	13	96	5
HLD	13	192	4	192
HLD	14	0	3	192
TAP	14	192	2
TAP	14	240	2
TAP	14	288	3
TAP	14	336	4
HLD	15	0	5	192
TAP	15	192	0
TAP	15	264	7
TAP	15	336	6
HLD	16	0	5	192
TAP	16	192	2
TAP	16	264	3
TAP	16	336	4
HLD	17	0	5	192
TAP	17	192	7
TAP	17	264	6
TAP	17	336	5
TAP	18	0	4
TAP	18	48	4
TAP	18	96	3
TAP	18	144	3
TAP	18	240	5
TAP	18	288	4
TAP	18	336	3
HLD	19	0	2	192
TAP	19	192	7
TAP	19	264	0
TAP	19	336	1
HLD	20	0	2	192
TAP	20	192	5
TAP	20	264	4
TAP	20	336	3
TAP	21	0	2
TAP	21	72	3
TAP	21	144	4
STR	21	192	5
SI_	21	192	5	96	96	2
HLD	22	192	0	96
TAP	22	192	7
HLD	22	288	1	96
HLD	23	0	2	96
TAP	23	96	3
TAP	23	192	0
HLD	23	192	7	96
HLD	23	288	6	96
HLD	24	0	5	96
TAP	24	96	4
HLD	24	192	3	96
TAP	24	192	4
HLD	24	288	4	96
HLD	25	0	5	96
TAP	25	96	4
TAP	25	192	3
HLD	25	192	4	96
HLD	25	288	3	96
HLD	26	0	2	96
TAP	26	96	3
TAP	26	192	0
TAP	26	264	1
HLD	26	336	0	144
HLD	27	0	7	96
TAP	27	192	7
TAP	27	264	6
HLD	27	336	7	144
HLD	28	0	0	96
TAP	28	192	0
TAP	28	192	7
TAP	28	288	1
TAP	28	288	6
TAP	29	0	2
TAP	29	0	5
TAP	29	96	3
TAP	29	96	4
TAP	29	192	2
TAP	29	192	6
TAP	29	264	0
TAP	29	264	4
TAP	29	336	3
TAP	29	336	7
BRK	30	0	1
BRK	30	0	5
TAP	30	192	7
TAP	30	240	0
TAP	30	288	1
TAP	30	312	0
HLD	30	360	6	120
TAP	31	192	0
TAP	31	240	7
TAP	31	288	6
TAP	31	312	7
HLD	31	360	1	120
TAP	32	192	7
TAP	32	240	0
TAP	32	288	1
TAP	32	312	0
TAP	32	360	6
TAP	33	48	5
TAP	33	96	4
TAP	33	144	3
TAP	33	192	2
HLD	33	264	3	216
HLD	33	336	4	145
TAP	34	240	2
TAP	34	288	1
TAP	34	336	0
TAP	35	0	7
TAP	35	72	7
TAP	35	144	6
TAP	35	192	0
TAP	35	264	0
TAP	35	336	1
STR	36	0	2
SCR	36	0	2	96	96	5
TAP	36	192	0
TAP	36	264	7
TAP	36	336	6
STR	37	0	5
SI_	37	0	5	96	96	2
TAP	37	192	0
TAP	37	336	7
TAP	37	360	0
BRK	38	0	7
TAP	38	192	0
TAP	38	240	7
TAP	38	288	6
TAP	38	312	7
HLD	38	360	1	120
TAP	39	192	7
TAP	39	240	0
TAP	39	288	1
TAP	39	312	0
HLD	39	360	6	120
TAP	40	192	0
TAP	40	240	7
TAP	40	288	6
TAP	40	312	7
TAP	40	360	1
TAP	41	48	2
TAP	41	96	3
TAP	41	144	4
TAP	41	192	5
HLD	41	264	4	216
HLD	41	336	3	144
TAP	42	192	6
TAP	42	240	7
TAP	42	288	0
TAP	42	336	1
TAP	43	48	1
TAP	43	96	0
TAP	43	144	7
STR	43	192	6
SI_	43	192	6	96	96	3
STR	44	0	1
SI_	44	0	1	96	96	4
STR	44	192	7
SCL	44	192	7	96	192	4
STR	45	192	0
SCR	45	192	0	96	192	3
TAP	48	192	0
TAP	48	192	1
TAP	48	264	2
TAP	48	264	3
HLD	48	336	4	144
HLD	48	336	5	144
TAP	49	192	6
TAP	49	192	7
TAP	49	264	4
TAP	49	264	5
HLD	49	336	2	144
HLD	49	336	3	144
TAP	50	192	4
TAP	50	192	5
TAP	50	264	1
TAP	50	264	2
HLD	50	336	2	144
HLD	50	336	3	144
TAP	51	192	2
TAP	51	192	3
TAP	51	264	5
TAP	51	264	6
HLD	51	336	4	144
HLD	51	336	5	144
TAP	52	192	4
TAP	52	192	5
TAP	52	264	3
TAP	52	288	4
HLD	52	336	2	144
HLD	52	336	3	144
TAP	53	192	1
TAP	53	192	2
TAP	53	264	4
TAP	53	288	3
HLD	53	336	5	144
HLD	53	336	6	144
TAP	54	192	5
TAP	54	192	6
TAP	54	264	7
TAP	54	288	0
HLD	54	336	1	240
HLD	54	336	2	240
TAP	56	192	1
TAP	56	240	0
TAP	56	288	6
TAP	56	312	7
HLD	56	360	0	120
HLD	56	360	5	120
TAP	57	192	6
TAP	57	240	7
TAP	57	288	1
TAP	57	312	0
HLD	57	360	2	120
HLD	57	360	7	120
TAP	58	192	1
TAP	58	240	0
TAP	58	288	6
TAP	58	312	7
TAP	58	360	0
TAP	58	360	5
TAP	59	48	0
TAP	59	96	1
TAP	59	144	2
HLD	59	192	4	72
HLD	59	264	3	72
HLD	59	336	2	144
TAP	60	240	0
TAP	60	288	7
TAP	60	336	6
STR	61	0	5
SI_	61	0	5	96	96	2
TAP	61	144	1
STR	61	192	1
SI_	61	192	1	96	96	4
TAP	61	336	6
STR	62	0	6
SI_	62	0	6	96	96	3
TAP	62	192	2
TAP	62	264	3
TAP	62	336	4
STR	63	0	5
SCL	63	0	5	96	96	2
TAP	63	336	7
TAP	63	360	0
BRK	64	0	7
TAP	64	192	6
TAP	64	240	7
TAP	64	288	1
TAP	64	312	0
HLD	64	360	2	120
HLD	64	360	7	120
TAP	65	192	1
TAP	65	240	0
TAP	65	288	6
TAP	65	312	7
HLD	65	360	0	120
HLD	65	360	5	120
TAP	66	192	6
TAP	66	240	7
TAP	66	288	1
TAP	66	312	0
TAP	66	360	2
TAP	66	360	7
TAP	67	48	7
TAP	67	96	6
TAP	67	144	5
HLD	67	192	3	72
HLD	67	264	4	72
HLD	67	336	5	144
TAP	68	192	7
TAP	68	240	0
TAP	68	288	1
HLD	68	336	2	240
TAP	69	48	0
TAP	69	96	7
TAP	69	144	6
HLD	69	192	5	96
HLD	69	288	3	96
HLD	70	0	2	96
HLD	70	96	4	96
HLD	70	192	5	672
STR	71	192	6
SI_	71	192	6	96	192	1
TAP	72	192	3
TAP	72	264	4
TAP	72	336	2
TAP	73	24	3
TAP	73	96	4
TAP	73	144	5
TAP	73	192	4
TAP	73	264	3
TAP	73	336	5
TAP	74	24	4
TAP	74	96	3
TAP	74	144	2
TAP	74	192	4
TAP	74	264	3
TAP	74	336	4
TAP	75	24	5
TAP	75	96	6
TAP	75	144	7
BRK	75	192	0
BRK	75	216	7
BRK	75	240	0

T_REC_TAP	237
T_REC_BRK	7
T_REC_XTP	0
T_REC_HLD	74
T_REC_XHO	0
T_REC_STR	13
T_REC_BST	0
T_REC_XST	0
T_REC_TTP	0
T_REC_THO	0
T_REC_SLD	13
T_REC_ALL	344
T_NUM_TAP	250
T_NUM_BRK	7
T_NUM_HLD	74
T_NUM_SLD	13
T_NUM_ALL	344
T_JUDGE_TAP	257
T_JUDGE_HLD	236
T_JUDGE_SLD	13
T_JUDGE_ALL	506
TTM_EACHPAIRS	36
TTM_SCR_TAP	125000
TTM_SCR_BRK	18200
TTM_SCR_HLD	74000
TTM_SCR_SLD	19500
TTM_SCR_ALL	236700
TTM_SCR_S	228950
TTM_SCR_SS	236000
TTM_RAT_ACV	10029

