VERSION	0.00.00	1.03.00
FES_MODE	0
BPM_DEF	147.000	147.000	147.000	147.000
MET_DEF	4	4
RESOLUTION	384
CLK_DEF	384
COMPATIBLE_CODE	MA2

BPM	0	0	147.000
MET	0	0	4	4

HLD	1	0	0	192
TAP	1	192	7
HLD	2	0	6	192
TAP	2	192	1
HLD	3	0	2	192
TAP	3	192	5
HLD	4	0	0	192
STR	4	192	7
SI_	4	192	7	96	192	3
STR	5	192	4
SI_	5	192	4	96	192	0
HLD	6	192	1	288
HLD	7	192	2	288
HLD	8	192	3	288
HLD	9	192	4	288
HLD	10	192	3	288
TAP	11	96	2
HLD	11	192	1	288
TAP	12	96	0
HLD	12	192	7	288
TAP	13	96	6
HLD	13	192	5	192
TAP	14	0	4
TAP	14	288	0
TAP	15	0	7
TAP	15	96	0
TAP	15	288	1
TAP	16	0	6
TAP	16	96	1
TAP	16	288	2
TAP	17	0	5
TAP	17	96	2
TAP	17	288	3
TAP	18	0	4
TAP	18	96	3
TAP	18	288	4
TAP	19	96	5
TAP	19	288	6
TAP	20	96	7
TAP	20	288	0
TAP	21	96	1
TAP	21	288	0
TAP	22	96	7
HLD	22	288	0	192
TAP	23	96	1
HLD	23	288	0	192
TAP	24	96	7
HLD	24	192	6	192
TAP	25	0	7
TAP	25	96	0
HLD	25	192	1	192
TAP	26	0	2
TAP	26	192	1
TAP	27	0	0
TAP	27	192	7
TAP	28	0	6
TAP	28	192	7
TAP	28	288	0
TAP	29	0	1
TAP	29	96	2
TAP	29	192	1
TAP	29	264	1
TAP	29	336	0
BRK	30	0	0
TAP	30	192	1
TAP	30	240	1
TAP	30	288	0
TAP	30	312	0
HLD	30	360	2	120
TAP	31	192	7
TAP	31	240	7
TAP	31	288	0
TAP	31	312	0
HLD	31	360	6	120
TAP	32	192	0
TAP	32	240	0
TAP	32	288	7
TAP	32	312	7
HLD	32	360	1	120
TAP	33	192	3
TAP	33	192	4
TAP	33	264	3
TAP	33	264	4
TAP	33	336	2
TAP	33	336	5
TAP	34	192	3
TAP	35	0	1
TAP	35	192	7
TAP	36	0	5
HLD	36	192	5	192
HLD	37	0	6	192
HLD	37	192	7	192
BRK	38	0	0
TAP	38	192	1
TAP	38	240	1
TAP	38	288	0
TAP	38	312	0
HLD	38	360	2	120
TAP	39	192	7
TAP	39	240	7
TAP	39	288	0
TAP	39	312	0
HLD	39	360	6	120
TAP	40	192	0
TAP	40	240	0
TAP	40	288	7
TAP	40	312	7
HLD	40	360	1	120
TAP	41	192	0
TAP	41	192	7
TAP	41	264	0
TAP	41	264	7
TAP	41	336	0
TAP	41	336	7
HLD	42	192	1	191
TAP	43	96	1
HLD	43	192	2	192
HLD	44	0	3	192
HLD	44	192	4	288
HLD	45	192	5	192
HLD	46	0	6	192
TAP	48	192	0
TAP	48	264	0
HLD	48	336	1	144
TAP	49	192	6
TAP	49	264	6
HLD	49	336	5	144
TAP	50	192	2
TAP	50	264	2
HLD	50	336	3	144
TAP	51	192	5
TAP	51	264	5
HLD	51	336	4	144
STR	52	192	3
SI_	52	192	3	96	192	6
STR	53	192	4
SI_	53	192	4	96	192	1
STR	54	192	0
SI_	54	192	0	96	192	3
STR	54	192	7
SI_	54	192	7	96	192	4
TAP	56	192	1
TAP	56	240	1
TAP	56	288	0
TAP	56	312	0
HLD	56	360	2	120
TAP	57	192	7
TAP	57	240	7
TAP	57	288	0
TAP	57	312	0
HLD	57	360	6	120
TAP	58	192	0
TAP	58	240	0
TAP	58	288	7
TAP	58	312	7
HLD	58	360	1	120
TAP	59	192	3
TAP	59	192	4
TAP	59	264	3
TAP	59	264	4
TAP	59	336	2
TAP	59	336	5
TAP	60	192	3
TAP	61	0	1
TAP	61	192	7
TAP	62	0	5
HLD	62	192	5	192
HLD	63	0	6	192
HLD	63	192	7	192
BRK	64	0	0
TAP	64	192	1
TAP	64	240	1
TAP	64	288	0
TAP	64	312	0
HLD	64	360	2	120
TAP	65	192	7
TAP	65	240	7
TAP	65	288	0
TAP	65	312	0
HLD	65	360	6	120
TAP	66	192	0
TAP	66	240	0
TAP	66	288	7
TAP	66	312	7
HLD	66	360	1	120
TAP	67	192	0
TAP	67	192	7
TAP	67	264	0
TAP	67	264	7
BRK	67	336	0
BRK	67	336	7
HLD	68	192	1	191
TAP	69	96	1
HLD	69	192	2	192
HLD	70	0	3	192
HLD	70	192	4	288
HLD	71	192	5	192
HLD	72	0	6	192
TAP	72	192	7
HLD	72	336	1	144
TAP	73	192	0
HLD	73	336	6	144
TAP	74	192	5
HLD	74	336	3	144
BRK	75	192	1
BRK	75	192	6
BRK	75	240	1
BRK	75	240	6

T_REC_TAP	134
T_REC_BRK	9
T_REC_XTP	0
T_REC_HLD	53
T_REC_XHO	0
T_REC_STR	6
T_REC_BST	0
T_REC_XST	0
T_REC_TTP	0
T_REC_THO	0
T_REC_SLD	6
T_REC_ALL	208
T_NUM_TAP	140
T_NUM_BRK	9
T_NUM_HLD	53
T_NUM_SLD	6
T_NUM_ALL	208
T_JUDGE_TAP	149
T_JUDGE_HLD	211
T_JUDGE_SLD	6
T_JUDGE_ALL	366
TTM_EACHPAIRS	15
TTM_SCR_TAP	70000
TTM_SCR_BRK	23400
TTM_SCR_HLD	53000
TTM_SCR_SLD	9000
TTM_SCR_ALL	155400
TTM_SCR_S	149900
TTM_SCR_SS	154500
TTM_RAT_ACV	10058

