VERSION	0.00.00	1.03.00
FES_MODE	0
BPM_DEF	147.000	147.000	147.000	147.000
MET_DEF	4	4
RESOLUTION	384
CLK_DEF	384
COMPATIBLE_CODE	MA2

BPM	0	0	147.000
MET	0	0	4	4

TAP	1	0	0
TAP	1	192	0
TAP	2	0	1
TAP	2	192	1
TAP	3	0	7
TAP	3	192	6
BRK	4	0	5
HLD	4	192	0	288
HLD	5	192	1	288
TAP	6	288	0
TAP	7	96	0
TAP	7	288	1
TAP	8	96	1
TAP	8	288	7
TAP	9	96	7
TAP	9	288	6
TAP	10	96	6
TAP	10	288	0
TAP	11	96	0
TAP	11	288	7
TAP	12	96	7
TAP	12	288	0
TAP	13	96	0
TAP	13	288	7
TAP	14	96	6
TAP	14	288	0
TAP	15	96	1
TAP	15	288	2
TAP	16	96	3
TAP	16	288	4
TAP	17	96	5
TAP	17	288	6
TAP	18	96	7
TAP	18	288	6
TAP	19	96	5
TAP	19	288	4
TAP	20	96	3
TAP	20	288	2
TAP	21	96	1
TAP	21	288	0
TAP	22	96	7
TAP	22	288	0
TAP	23	0	0
TAP	23	96	1
TAP	23	288	1
TAP	24	0	1
TAP	24	96	2
TAP	24	288	1
STR	25	96	0
SI_	25	96	0	96	192	3
TAP	26	192	7
TAP	27	0	5
TAP	27	192	3
TAP	28	0	1
TAP	28	192	0
TAP	28	288	1
TAP	29	0	2
TAP	29	96	3
TAP	29	192	2
TAP	30	0	1
TAP	30	0	6
TAP	30	192	0
TAP	30	192	7
TAP	30	288	1
TAP	31	0	2
TAP	31	96	1
TAP	31	192	0
TAP	31	192	7
TAP	31	288	6
TAP	32	0	5
TAP	32	96	4
STR	32	192	5
SI_	32	192	5	96	192	1
STR	33	192	2
SI_	33	192	2	96	192	7
TAP	34	288	7
TAP	35	96	0
TAP	35	288	1
TAP	36	96	2
TAP	36	288	1
TAP	37	96	0
HLD	37	192	0	96
BRK	38	0	0
TAP	38	192	0
TAP	38	192	7
TAP	38	288	1
TAP	39	0	2
TAP	39	96	1
TAP	39	192	0
TAP	39	192	7
TAP	39	288	6
TAP	40	0	5
TAP	40	96	4
STR	40	192	5
SI_	40	192	5	96	192	1
STR	41	192	2
SI_	41	192	2	96	193	7
HLD	42	192	6	192
TAP	43	192	0
TAP	44	0	1
HLD	44	192	2	192
HLD	45	192	7	192
HLD	46	0	6	192
TAP	48	192	1
TAP	49	0	1
TAP	49	192	0
TAP	50	0	0
TAP	50	192	7
TAP	51	0	7
HLD	51	192	6	192
TAP	52	192	5
TAP	53	0	4
TAP	53	192	3
TAP	54	0	2
STR	54	192	1
SI_	54	192	1	96	192	6
TAP	56	192	0
TAP	56	192	7
TAP	56	288	1
TAP	57	0	2
TAP	57	96	1
TAP	57	192	0
TAP	57	192	7
TAP	57	288	6
TAP	58	0	5
TAP	58	96	4
STR	58	192	5
SI_	58	192	5	96	192	1
STR	59	192	2
SI_	59	192	2	96	192	7
TAP	60	288	7
TAP	61	96	0
TAP	61	288	1
TAP	62	96	2
TAP	62	288	1
TAP	63	96	0
HLD	63	192	0	96
BRK	64	0	0
TAP	64	192	0
TAP	64	192	7
TAP	64	288	1
TAP	65	0	2
TAP	65	96	1
TAP	65	192	0
TAP	65	192	7
TAP	65	288	6
TAP	66	0	5
TAP	66	96	4
STR	66	192	5
SI_	66	192	5	96	192	1
STR	67	192	2
SI_	67	192	2	96	192	7
HLD	68	192	6	192
TAP	69	192	0
TAP	70	0	1
HLD	70	192	2	192
TAP	71	192	1
BRK	72	0	0
HLD	72	192	7	192
HLD	73	192	6	192
HLD	74	192	5	192
TAP	75	192	0
TAP	75	192	7
BRK	75	240	0
BRK	75	240	7

T_REC_TAP	125
T_REC_BRK	6
T_REC_XTP	0
T_REC_HLD	14
T_REC_XHO	0
T_REC_STR	10
T_REC_BST	0
T_REC_XST	0
T_REC_TTP	0
T_REC_THO	0
T_REC_SLD	10
T_REC_ALL	165
T_NUM_TAP	135
T_NUM_BRK	6
T_NUM_HLD	14
T_NUM_SLD	10
T_NUM_ALL	165
T_JUDGE_TAP	141
T_JUDGE_HLD	56
T_JUDGE_SLD	10
T_JUDGE_ALL	207
TTM_EACHPAIRS	11
TTM_SCR_TAP	67500
TTM_SCR_BRK	15600
TTM_SCR_HLD	14000
TTM_SCR_SLD	15000
TTM_SCR_ALL	112100
TTM_SCR_S	108200
TTM_SCR_SS	111500
TTM_RAT_ACV	10053

