VERSION	0.00.00	1.03.00
FES_MODE	0
BPM_DEF	160.000	160.000	160.000	160.000
MET_DEF	4	4
RESOLUTION	384
CLK_DEF	384
COMPATIBLE_CODE	MA2

BPM	0	0	160.000
MET	0	0	4	4

TAP	2	0	0
TAP	2	48	1
TAP	2	96	2
TAP	2	144	3
TAP	2	192	4
TAP	2	240	5
TAP	2	288	6
TAP	2	336	7
TAP	3	0	7
TAP	3	48	6
TAP	3	96	5
TAP	3	144	4
TAP	3	192	3
TAP	3	240	2
TAP	3	288	1
TAP	3	336	0
TAP	4	0	0
TAP	4	48	1
TAP	4	96	2
TAP	4	144	3
TAP	4	192	4
TAP	4	240	5
TAP	4	288	6
TAP	4	336	7
TAP	5	0	7
TAP	5	48	6
TAP	5	96	5
TAP	5	144	4
TAP	5	192	3
TAP	5	240	2
TAP	5	288	1
TAP	5	336	0
TAP	6	0	0
TAP	6	48	6
TAP	6	96	2
TAP	6	144	4
TAP	6	192	3
TAP	6	240	3
TAP	6	288	4
TAP	6	336	4
TAP	7	0	3
TAP	7	48	5
TAP	7	96	1
TAP	7	144	7
TAP	7	192	0
TAP	7	240	0
TAP	7	288	7
TAP	7	336	7
TAP	8	0	0
TAP	8	48	4
TAP	8	96	2
TAP	8	144	6
TAP	8	192	7
TAP	8	240	0
TAP	8	288	1
TAP	8	336	2
TAP	9	0	3
TAP	9	48	7
TAP	9	96	1
TAP	9	144	5
TAP	9	192	4
TAP	9	240	3
TAP	9	288	2
TAP	9	336	1
HLD	10	0	0	576
TAP	10	144	6
TAP	10	192	6
TAP	10	336	2
TAP	11	0	2
TAP	11	144	6
TAP	11	192	6
HLD	12	0	7	576
TAP	12	144	5
TAP	12	192	5
TAP	12	336	1
TAP	13	0	1
TAP	13	144	5
TAP	13	192	5
TAP	14	0	0
HLD	14	0	7	96
TAP	14	96	6
TAP	14	144	5
HLD	14	192	0	96
TAP	14	192	6
TAP	14	288	1
TAP	14	336	2
TAP	15	0	1
HLD	15	0	7	96
TAP	15	96	6
TAP	15	144	5
HLD	15	192	0	96
TAP	15	192	6
TAP	16	0	2
HLD	16	0	4	96
TAP	16	96	5
TAP	16	144	6
HLD	16	192	3	96
TAP	16	192	5
TAP	16	288	2
TAP	16	336	1
TAP	17	0	0
TAP	17	0	7
TAP	17	96	1
TAP	17	96	5
TAP	17	192	3
TAP	17	192	7
STR	18	0	6
SCL	18	0	6	96	48	3
TAP	18	96	0
TAP	18	144	0
TAP	18	288	6
STR	19	0	7
SCR	19	0	7	96	48	2
TAP	19	96	6
TAP	19	144	5
TAP	19	288	7
STR	20	0	1
SCR	20	0	1	96	48	4
TAP	20	96	7
TAP	20	144	7
TAP	20	288	1
STR	21	0	0
SCL	21	0	0	96	48	5
TAP	21	96	1
TAP	21	144	2
TAP	21	288	0
TAP	22	0	7
TAP	22	48	6
TAP	22	72	5
TAP	22	96	6
TAP	22	144	7
TAP	22	168	0
TAP	22	192	7
TAP	22	240	1
TAP	22	264	2
BRK	22	288	1
TAP	23	0	3
TAP	23	48	2
TAP	23	72	1
TAP	23	96	2
TAP	23	144	7
TAP	23	168	0
TAP	23	192	7
TAP	23	240	5
TAP	23	264	6
BRK	23	288	5
TAP	24	0	7
TAP	24	48	0
TAP	24	72	1
TAP	24	96	0
TAP	24	144	2
TAP	24	168	3
TAP	24	192	2
TAP	24	240	4
TAP	24	264	5
TAP	24	288	4
TAP	24	336	6
TAP	24	360	7
TAP	25	0	6
TAP	25	48	5
TAP	25	72	4
TAP	25	96	3
TAP	25	144	0
STR	26	0	6
SI_	26	0	6	96	48	2
TAP	26	96	0
TAP	26	144	0
TAP	26	288	1
STR	27	0	1
SI_	27	0	1	96	48	5
TAP	27	96	7
TAP	27	144	7
TAP	27	288	6
STR	28	0	5
SI_	28	0	5	96	48	1
TAP	28	96	3
STR	28	144	3
SI_	28	144	3	96	48	7
TAP	28	240	0
TAP	28	288	0
STR	29	0	2
SI_	29	0	2	96	48	6
TAP	29	96	4
STR	29	144	4
SI_	29	144	4	96	48	0
TAP	29	240	7
TAP	29	288	7
HLD	30	0	0	288
HLD	31	0	1	288
HLD	32	0	7	96
TAP	32	96	1
HLD	32	144	1	96
TAP	32	240	5
HLD	32	288	5	96
TAP	33	0	4
TAP	33	48	3
TAP	33	96	2
TAP	33	144	1
TAP	33	240	7
BRK	33	288	7
TAP	34	0	0
TAP	34	48	1
TAP	34	96	2
TAP	34	144	3
TAP	34	192	4
TAP	34	240	5
TAP	34	288	6
TAP	34	336	7
TAP	35	0	7
TAP	35	48	6
TAP	35	96	5
TAP	35	144	4
TAP	35	192	3
TAP	35	240	2
TAP	35	288	1
TAP	35	336	0
TAP	36	0	0
TAP	36	48	1
TAP	36	96	2
TAP	36	144	3
TAP	36	192	4
TAP	36	240	5
TAP	36	288	6
TAP	36	336	7
TAP	37	0	7
TAP	37	48	6
TAP	37	96	5
TAP	37	144	4
TAP	37	192	3
TAP	37	240	2
TAP	37	288	1
TAP	37	336	0
TAP	38	0	0
TAP	38	48	6
TAP	38	96	2
TAP	38	144	4
TAP	38	192	3
TAP	38	240	3
TAP	38	288	4
TAP	38	336	4
TAP	39	0	3
TAP	39	48	5
TAP	39	96	1
TAP	39	144	7
TAP	39	192	0
TAP	39	240	0
TAP	39	288	7
TAP	39	336	7
TAP	40	0	0
TAP	40	48	4
TAP	40	96	2
TAP	40	144	6
TAP	40	192	7
TAP	40	240	0
TAP	40	288	1
TAP	40	336	2
TAP	41	0	3
TAP	41	48	7
TAP	41	96	1
TAP	41	144	5
TAP	41	192	4
TAP	41	240	3
TAP	41	288	2
TAP	41	336	1
HLD	42	0	0	96
TAP	42	96	7
HLD	42	144	6	96
TAP	42	240	7
TAP	42	288	0
TAP	43	0	1
TAP	43	48	2
TAP	43	96	1
TAP	43	144	0
TAP	43	144	7
TAP	43	240	6
BRK	43	288	6
HLD	44	0	4	96
TAP	44	0	5
TAP	44	96	3
HLD	44	144	2	96
TAP	44	240	1
TAP	44	288	0
TAP	45	0	6
TAP	45	48	7
TAP	45	96	0
TAP	45	144	0
TAP	45	144	7
TAP	45	240	6
BRK	45	288	6
HLD	46	0	4	96
TAP	46	0	5
HLD	46	96	3	96
TAP	46	192	2
TAP	46	288	0
TAP	46	336	0
TAP	47	0	7
TAP	47	48	6
TAP	47	96	7
TAP	47	144	0
TAP	47	240	1
BRK	47	288	1
TAP	48	0	4
TAP	48	0	6
TAP	48	96	2
TAP	48	96	6
TAP	48	192	1
TAP	48	192	5
TAP	48	288	1
TAP	48	288	7
TAP	49	0	0
TAP	49	0	7
TAP	49	96	1
TAP	49	96	6
TAP	49	144	1
TAP	49	144	6
BRK	49	240	0
BRK	49	240	6
BRK	49	288	1
BRK	49	288	7
HLD	50	0	2	96
TAP	50	0	5
TAP	50	96	3
HLD	50	144	4	144
TAP	50	192	3
TAP	50	240	2
TAP	50	287	2
TAP	51	0	2
HLD	51	0	5	96
TAP	51	96	4
HLD	51	144	3	144
TAP	51	192	4
TAP	51	240	5
TAP	51	288	5
HLD	52	0	2	96
TAP	52	0	5
TAP	52	96	3
HLD	52	144	4	144
TAP	52	192	5
TAP	52	240	6
TAP	52	288	6
TAP	53	0	2
HLD	53	0	5	96
TAP	53	96	4
HLD	53	144	3	144
TAP	53	192	2
TAP	53	240	1
TAP	53	288	1
TAP	54	0	6
HLD	54	0	7	96
HLD	54	96	0	192
TAP	54	144	1
TAP	54	240	7
TAP	54	288	6
HLD	55	0	0	96
TAP	55	0	1
HLD	55	96	7	192
TAP	55	144	6
TAP	55	240	0
TAP	55	288	1
HLD	56	0	4	96
TAP	56	0	5
TAP	56	96	3
TAP	56	144	2
HLD	56	192	1	144
TAP	56	288	2
TAP	56	336	3
TAP	57	0	4
HLD	57	0	6	144
TAP	57	96	5
TAP	57	144	4
HLD	57	192	3	96
TAP	57	288	4
TAP	57	336	5
HLD	58	0	2	96
TAP	58	0	5
TAP	58	96	3
HLD	58	144	4	144
TAP	58	192	3
TAP	58	240	2
TAP	58	287	2
TAP	59	0	2
HLD	59	0	5	96
TAP	59	96	4
HLD	59	144	3	144
TAP	59	192	4
TAP	59	240	5
TAP	59	288	5
HLD	60	0	2	96
TAP	60	0	5
TAP	60	96	3
HLD	60	144	4	144
TAP	60	192	5
TAP	60	240	6
TAP	60	288	6
TAP	61	0	2
HLD	61	0	5	96
TAP	61	96	4
HLD	61	144	3	144
TAP	61	192	2
TAP	61	240	1
BRK	61	288	1
HLD	62	0	3	96
HLD	62	96	4	96
HLD	62	192	5	96
TAP	62	288	6
STR	63	0	7
SCL	63	0	7	96	48	4
STR	63	192	7
SCR	63	192	7	96	48	2
HLD	64	0	2	288
HLD	64	0	4	288
TAP	66	0	0
TAP	66	48	1
TAP	66	96	2
TAP	66	144	3
TAP	66	192	4
TAP	66	240	5
TAP	66	288	6
TAP	66	336	7
TAP	67	0	7
TAP	67	48	6
TAP	67	96	5
TAP	67	144	4
TAP	67	192	3
TAP	67	240	2
TAP	67	288	1
TAP	67	336	0
TAP	68	0	0
TAP	68	48	1
TAP	68	96	2
TAP	68	144	3
TAP	68	192	4
TAP	68	240	5
TAP	68	288	6
TAP	68	336	7
TAP	69	0	7
TAP	69	48	6
TAP	69	96	5
TAP	69	144	4
TAP	69	192	3
TAP	69	240	2
TAP	69	288	1
TAP	69	336	0
TAP	70	0	0
TAP	70	48	6
TAP	70	96	2
TAP	70	144	4
TAP	70	192	3
TAP	70	240	3
TAP	70	288	4
TAP	70	336	4
TAP	71	0	3
TAP	71	48	5
TAP	71	96	1
TAP	71	144	7
TAP	71	192	0
TAP	71	240	0
TAP	71	288	7
TAP	71	336	7
TAP	72	0	0
TAP	72	48	4
TAP	72	96	2
TAP	72	144	6
TAP	72	192	7
TAP	72	240	0
TAP	72	288	1
TAP	72	336	2
TAP	73	0	3
TAP	73	48	7
TAP	73	96	1
TAP	73	144	5
TAP	73	192	4
TAP	73	240	3
TAP	73	288	2
TAP	73	336	1
HLD	74	0	0	576
TAP	74	144	6
TAP	74	192	6
TAP	74	336	2
TAP	75	0	2
TAP	75	144	6
TAP	75	192	6
HLD	76	0	7	576
TAP	76	144	5
TAP	76	192	5
TAP	76	336	1
TAP	77	0	1
TAP	77	144	5
TAP	77	192	5
TAP	78	0	0
HLD	78	0	7	96
TAP	78	96	6
TAP	78	144	5
HLD	78	192	0	96
TAP	78	192	6
TAP	78	288	1
TAP	78	336	2
TAP	79	0	1
HLD	79	0	7	96
TAP	79	96	6
TAP	79	144	5
HLD	79	192	0	96
TAP	79	192	6
TAP	80	0	2
HLD	80	0	4	96
TAP	80	96	5
TAP	80	144	6
HLD	80	192	3	96
TAP	80	192	5
TAP	80	288	2
TAP	80	336	1
TAP	81	0	0
TAP	81	0	7
TAP	81	96	1
TAP	81	96	5
TAP	81	192	3
TAP	81	192	7

T_REC_TAP	426
T_REC_BRK	11
T_REC_XTP	0
T_REC_HLD	56
T_REC_XHO	0
T_REC_STR	12
T_REC_BST	0
T_REC_XST	0
T_REC_TTP	0
T_REC_THO	0
T_REC_SLD	12
T_REC_ALL	517
T_NUM_TAP	438
T_NUM_BRK	11
T_NUM_HLD	56
T_NUM_SLD	12
T_NUM_ALL	517
T_JUDGE_TAP	449
T_JUDGE_HLD	182
T_JUDGE_SLD	12
T_JUDGE_ALL	643
TTM_EACHPAIRS	44
TTM_SCR_TAP	219000
TTM_SCR_BRK	28600
TTM_SCR_HLD	56000
TTM_SCR_SLD	18000
TTM_SCR_ALL	321600
TTM_SCR_S	310900
TTM_SCR_SS	320500
TTM_RAT_ACV	10034

