VERSION	0.00.00	1.03.00
FES_MODE	0
BPM_DEF	160.000	160.000	160.000	160.000
MET_DEF	4	4
RESOLUTION	384
CLK_DEF	384
COMPATIBLE_CODE	MA2

BPM	0	0	160.000
MET	0	0	4	4

TAP	2	0	3
TAP	2	96	5
TAP	2	144	5
TAP	2	192	4
TAP	2	288	2
TAP	3	0	3
TAP	3	96	5
TAP	3	144	5
TAP	3	192	4
TAP	3	288	2
TAP	4	0	3
TAP	4	96	5
TAP	4	144	5
TAP	4	192	4
TAP	4	288	2
TAP	5	0	3
TAP	5	96	5
TAP	5	144	5
TAP	5	192	4
TAP	5	288	2
TAP	5	288	3
TAP	6	0	4
TAP	6	96	2
TAP	6	144	2
TAP	6	192	3
TAP	6	288	5
TAP	7	0	4
TAP	7	96	2
TAP	7	144	2
TAP	7	192	3
TAP	7	288	5
TAP	8	0	4
TAP	8	96	2
TAP	8	144	2
TAP	8	192	3
TAP	8	288	5
TAP	9	0	4
TAP	9	96	2
TAP	9	144	2
TAP	9	192	3
TAP	9	288	4
TAP	9	288	5
STR	10	0	1
SCR	10	0	1	96	96	4
STR	10	192	6
SCL	10	192	6	96	96	3
TAP	11	0	1
TAP	11	48	1
STR	11	96	1
SCR	11	96	1	96	96	4
STR	12	0	6
SCL	12	0	6	96	96	3
STR	12	192	1
SCR	12	192	1	96	96	4
TAP	13	0	6
TAP	13	96	6
STR	13	192	6
SCL	13	192	6	96	96	3
HLD	14	0	1	144
TAP	14	144	2
HLD	14	192	1	144
TAP	14	336	2
HLD	15	0	1	96
TAP	15	96	7
TAP	15	144	0
HLD	15	192	7	96
HLD	16	0	6	144
TAP	16	144	5
HLD	16	192	6	144
TAP	16	336	5
BRK	17	0	6
BRK	17	96	7
BRK	17	192	0
TAP	18	0	2
TAP	18	96	5
TAP	18	144	2
TAP	18	192	4
TAP	18	240	3
TAP	18	288	4
TAP	19	0	5
TAP	19	96	2
TAP	19	144	5
TAP	19	192	3
TAP	19	240	4
TAP	19	288	3
TAP	20	0	2
TAP	20	96	5
TAP	20	144	2
TAP	20	192	4
TAP	20	240	3
TAP	20	288	4
TAP	21	0	5
TAP	21	96	2
TAP	21	144	5
TAP	21	192	3
TAP	21	240	4
TAP	21	288	3
TAP	22	0	2
TAP	22	48	2
TAP	22	96	4
TAP	22	144	2
TAP	22	192	5
TAP	22	240	5
TAP	22	288	3
TAP	22	336	5
TAP	23	0	2
TAP	23	48	2
TAP	23	96	3
TAP	23	144	2
TAP	23	192	5
TAP	23	240	5
TAP	23	288	4
TAP	23	336	5
TAP	24	0	2
TAP	24	96	5
TAP	24	144	2
TAP	24	192	4
TAP	24	240	3
TAP	24	288	4
TAP	25	0	5
TAP	25	96	2
TAP	25	144	5
TAP	25	192	3
TAP	25	240	4
TAP	25	288	3
STR	26	0	4
SI_	26	0	4	96	96	1
STR	26	192	5
SI_	26	192	5	96	96	0
TAP	27	0	2
TAP	27	48	2
TAP	27	96	3
TAP	27	192	5
TAP	27	240	5
TAP	27	288	4
STR	28	0	3
SI_	28	0	3	96	96	6
STR	28	192	2
SI_	28	192	2	96	96	7
TAP	29	0	3
TAP	29	48	4
TAP	29	96	3
TAP	29	144	4
TAP	30	0	1
TAP	30	96	2
TAP	30	192	6
TAP	30	288	5
TAP	31	0	1
TAP	31	96	2
TAP	31	192	6
TAP	31	288	5
TAP	32	0	0
TAP	32	96	0
TAP	32	192	7
TAP	32	288	7
TAP	33	0	3
TAP	33	48	4
STR	33	96	3
SI_	33	96	3	96	96	7
TAP	33	144	4
TAP	34	0	5
TAP	34	48	5
TAP	34	96	2
TAP	34	144	5
TAP	34	192	1
TAP	34	240	1
TAP	34	288	6
TAP	34	336	1
TAP	35	0	5
TAP	35	48	5
TAP	35	96	2
TAP	35	144	5
TAP	35	192	1
TAP	35	240	1
TAP	35	288	6
TAP	35	336	1
TAP	36	0	5
TAP	36	48	5
TAP	36	96	2
TAP	36	144	5
TAP	36	192	1
TAP	36	240	1
TAP	36	288	6
TAP	36	336	1
TAP	37	0	5
TAP	37	48	5
TAP	37	96	2
TAP	37	144	5
TAP	37	192	1
TAP	37	240	1
TAP	37	288	6
TAP	37	336	1
TAP	38	0	4
TAP	38	48	4
TAP	38	96	3
TAP	38	144	4
TAP	38	192	0
TAP	38	240	0
TAP	38	288	7
TAP	38	336	0
TAP	39	0	4
TAP	39	48	4
TAP	39	96	3
TAP	39	144	4
TAP	39	192	0
TAP	39	240	0
TAP	39	288	7
TAP	39	336	0
TAP	40	0	4
TAP	40	48	4
TAP	40	96	3
TAP	40	144	4
TAP	40	192	0
TAP	40	240	0
TAP	40	288	7
TAP	40	336	0
TAP	41	0	4
TAP	41	48	4
TAP	41	96	3
TAP	41	144	4
TAP	41	192	0
TAP	41	240	0
TAP	41	288	7
TAP	41	336	0
TAP	42	0	7
TAP	42	96	5
TAP	42	96	6
TAP	42	192	0
TAP	42	288	1
TAP	42	288	2
TAP	43	0	4
TAP	43	48	3
STR	43	96	4
SI_	43	96	4	96	96	7
TAP	43	144	3
TAP	44	0	0
TAP	44	96	1
TAP	44	96	2
TAP	44	192	7
TAP	44	288	5
TAP	44	288	6
TAP	45	0	3
TAP	45	48	4
STR	45	96	3
SI_	45	96	3	96	96	0
TAP	45	144	4
TAP	46	0	7
TAP	46	96	5
TAP	46	96	6
TAP	46	192	0
TAP	46	288	1
TAP	46	288	2
TAP	47	0	4
TAP	47	48	3
STR	47	96	4
SI_	47	96	4	96	96	7
TAP	47	144	3
TAP	48	0	0
TAP	48	96	1
TAP	48	96	2
TAP	48	192	7
TAP	48	288	5
TAP	48	288	6
TAP	49	0	3
TAP	49	0	4
STR	49	96	3
SI_	49	96	3	96	96	0
STR	49	96	4
SI_	49	96	4	96	96	7
TAP	49	144	3
TAP	49	144	4
TAP	50	0	1
TAP	50	96	5
TAP	50	144	5
TAP	50	192	7
TAP	50	288	3
TAP	51	0	1
TAP	51	96	5
TAP	51	144	5
TAP	51	192	0
TAP	51	288	4
TAP	52	0	6
TAP	52	96	2
TAP	52	144	2
TAP	52	192	0
TAP	52	288	4
TAP	53	0	6
TAP	53	96	2
TAP	53	144	2
TAP	53	192	7
TAP	53	288	3
HLD	54	0	5	96
HLD	54	96	6	96
HLD	54	192	7	96
HLD	54	288	0	96
HLD	55	0	1	96
HLD	55	96	0	96
HLD	55	192	7	96
HLD	55	288	6	96
HLD	56	0	5	96
TAP	56	96	3
TAP	56	144	3
TAP	56	192	1
TAP	56	288	4
TAP	57	0	2
TAP	57	96	4
TAP	57	144	4
TAP	57	192	6
TAP	57	288	3
TAP	58	0	6
TAP	58	96	2
TAP	58	144	2
TAP	58	192	0
TAP	58	288	4
TAP	59	0	6
TAP	59	96	2
TAP	59	144	2
TAP	59	192	7
TAP	59	288	3
TAP	60	0	1
TAP	60	96	5
TAP	60	144	5
TAP	60	192	7
TAP	60	288	3
TAP	61	0	1
TAP	61	96	5
TAP	61	144	5
TAP	61	192	0
TAP	61	288	4
HLD	62	0	2	96
HLD	62	96	1	96
HLD	62	192	0	96
HLD	62	288	7	96
HLD	63	0	6	96
HLD	63	96	7	96
HLD	63	192	0	96
HLD	63	288	1	96
HLD	64	0	2	384
BRK	65	240	0
BRK	65	240	7
BRK	65	288	0
BRK	65	288	7
TAP	66	0	5
TAP	66	48	5
TAP	66	96	4
TAP	66	144	5
TAP	66	192	1
TAP	66	240	1
TAP	66	288	0
TAP	66	336	1
TAP	67	0	5
TAP	67	48	5
TAP	67	96	4
TAP	67	144	5
TAP	67	192	1
TAP	67	240	1
TAP	67	288	0
TAP	67	336	1
TAP	68	0	5
TAP	68	48	5
TAP	68	96	4
TAP	68	144	5
TAP	68	192	1
TAP	68	240	1
TAP	68	288	0
TAP	68	336	1
TAP	69	0	5
TAP	69	48	5
TAP	69	96	4
TAP	69	144	5
TAP	69	192	1
TAP	69	240	1
TAP	69	288	0
TAP	69	336	1
TAP	70	0	3
TAP	70	48	3
TAP	70	96	2
TAP	70	144	3
TAP	70	192	7
TAP	70	240	7
BRK	70	288	6
TAP	70	336	7
TAP	71	0	3
TAP	71	48	3
TAP	71	96	2
TAP	71	144	3
TAP	71	192	7
TAP	71	240	7
BRK	71	288	6
TAP	71	336	7
TAP	72	0	3
TAP	72	48	3
TAP	72	96	2
TAP	72	144	3
TAP	72	192	7
TAP	72	240	7
BRK	72	288	6
TAP	72	336	7
TAP	73	0	3
TAP	73	48	3
TAP	73	96	2
TAP	73	144	3
TAP	73	192	7
TAP	73	240	7
BRK	73	288	6
TAP	73	336	7
STR	74	0	6
SCL	74	0	6	96	96	3
STR	74	192	1
SCR	74	192	1	96	96	4
TAP	75	0	6
TAP	75	48	6
STR	75	96	6
SCL	75	96	6	96	96	3
STR	76	0	1
SCR	76	0	1	96	96	4
STR	76	192	6
SCL	76	192	6	96	96	3
TAP	77	0	1
TAP	77	96	1
STR	77	192	1
SCR	77	192	1	96	96	4
HLD	78	0	6	144
TAP	78	144	5
HLD	78	192	6	144
TAP	78	336	5
HLD	79	0	6	96
TAP	79	96	0
TAP	79	144	7
HLD	79	192	0	96
HLD	80	0	1	144
TAP	80	144	2
HLD	80	192	1	144
TAP	80	336	2
TAP	81	0	1
TAP	81	96	0
STR	81	192	7
SI_	81	192	7	96	96	4
TAP	81	240	7

T_REC_TAP	352
T_REC_BRK	11
T_REC_XTP	0
T_REC_HLD	30
T_REC_XHO	0
T_REC_STR	23
T_REC_BST	0
T_REC_XST	0
T_REC_TTP	0
T_REC_THO	0
T_REC_SLD	23
T_REC_ALL	439
T_NUM_TAP	375
T_NUM_BRK	11
T_NUM_HLD	30
T_NUM_SLD	23
T_NUM_ALL	439
T_JUDGE_TAP	386
T_JUDGE_HLD	74
T_JUDGE_SLD	23
T_JUDGE_ALL	483
TTM_EACHPAIRS	15
TTM_SCR_TAP	187500
TTM_SCR_BRK	28600
TTM_SCR_HLD	30000
TTM_SCR_SLD	34500
TTM_SCR_ALL	280600
TTM_SCR_S	271150
TTM_SCR_SS	279500
TTM_RAT_ACV	10039

