VERSION	0.00.00	1.03.00
FES_MODE	0
BPM_DEF	160.000	160.000	160.000	160.000
MET_DEF	4	4
RESOLUTION	384
CLK_DEF	384
COMPATIBLE_CODE	MA2

BPM	0	0	160.000
MET	0	0	4	4

HLD	2	0	1	193
TAP	2	288	0
HLD	3	0	0	192
TAP	3	288	7
HLD	4	0	7	96
TAP	4	144	6
TAP	4	192	6
TAP	4	336	6
TAP	5	0	6
TAP	5	48	6
HLD	5	96	6	192
HLD	6	0	2	192
TAP	6	288	3
HLD	7	0	3	192
TAP	7	288	4
HLD	8	0	4	96
TAP	8	144	5
TAP	8	192	5
TAP	8	336	5
TAP	9	0	5
TAP	9	48	5
HLD	9	96	5	192
TAP	10	0	0
TAP	10	192	7
TAP	11	0	1
TAP	11	96	2
TAP	11	192	3
TAP	12	0	3
TAP	12	192	4
TAP	13	0	5
TAP	13	96	6
TAP	13	192	7
TAP	14	0	0
TAP	14	192	1
TAP	15	0	0
TAP	15	96	1
TAP	15	192	0
TAP	16	0	7
TAP	16	192	6
TAP	17	0	7
TAP	17	96	6
TAP	17	192	7
BRK	17	288	0
BRK	17	288	7
TAP	18	96	1
TAP	18	192	2
TAP	18	288	2
TAP	19	96	7
TAP	19	192	6
TAP	19	288	6
TAP	20	96	0
TAP	20	192	1
TAP	20	288	1
TAP	21	96	6
TAP	21	192	5
TAP	21	288	5
TAP	22	0	0
TAP	22	48	7
TAP	22	96	0
TAP	22	144	7
TAP	23	0	1
TAP	23	48	6
TAP	23	96	1
TAP	23	144	6
TAP	24	0	2
TAP	24	96	5
TAP	24	192	3
TAP	24	288	4
STR	25	0	3
SI_	25	0	3	96	96	0
STR	25	0	4
SI_	25	0	4	96	96	7
HLD	26	0	1	288
STR	27	0	0
SI_	27	0	0	96	96	3
TAP	28	96	5
TAP	28	192	6
TAP	28	288	7
TAP	29	96	0
TAP	29	192	7
TAP	29	288	0
HLD	30	0	1	288
HLD	31	0	5	288
TAP	32	0	4
TAP	32	96	3
TAP	32	192	2
TAP	32	288	1
STR	33	0	0
SCL	33	0	0	96	96	5
HLD	34	0	1	193
TAP	34	288	0
HLD	35	0	0	192
TAP	35	288	7
HLD	36	0	7	96
TAP	36	144	6
TAP	36	192	6
TAP	36	336	6
TAP	37	0	6
TAP	37	48	6
HLD	37	96	6	192
HLD	38	0	2	192
TAP	38	288	3
HLD	39	0	3	192
TAP	39	288	4
HLD	40	0	4	96
TAP	40	144	5
TAP	40	192	5
TAP	40	336	5
TAP	41	0	5
TAP	41	48	5
HLD	41	96	5	192
HLD	42	0	1	480
TAP	42	96	7
TAP	42	288	7
TAP	43	96	7
BRK	43	288	7
HLD	44	0	6	480
TAP	44	96	0
TAP	44	288	0
TAP	45	96	0
BRK	45	288	0
HLD	46	0	1	480
TAP	46	96	2
TAP	46	288	2
TAP	47	96	2
BRK	47	288	7
HLD	48	0	6	480
TAP	48	96	5
TAP	48	288	5
TAP	49	96	5
BRK	49	288	0
BRK	49	288	7
TAP	50	96	1
TAP	50	144	1
TAP	50	288	2
TAP	51	96	1
TAP	51	144	1
TAP	51	288	0
TAP	52	96	6
TAP	52	144	6
TAP	52	288	5
TAP	53	96	6
TAP	53	144	6
TAP	53	288	7
TAP	54	96	0
TAP	54	144	0
TAP	54	288	1
TAP	55	96	7
TAP	55	144	7
TAP	55	288	6
TAP	56	96	3
TAP	56	144	3
TAP	56	288	2
TAP	57	96	4
TAP	57	144	4
TAP	57	288	5
TAP	58	96	0
TAP	58	144	0
TAP	58	288	1
TAP	59	96	7
TAP	59	144	7
TAP	59	288	6
TAP	60	96	2
TAP	60	144	2
TAP	60	288	3
TAP	61	96	5
TAP	61	144	5
TAP	61	288	4
TAP	62	96	1
TAP	62	144	1
TAP	62	288	0
TAP	63	96	7
TAP	63	144	7
TAP	63	288	6
STR	64	0	0
SCR	64	0	0	96	192	3
HLD	66	0	1	193
TAP	66	288	0
HLD	67	0	0	192
TAP	67	288	7
HLD	68	0	7	96
TAP	68	144	6
TAP	68	192	6
TAP	68	336	6
TAP	69	0	6
TAP	69	48	6
HLD	69	96	6	192
HLD	70	0	2	192
TAP	70	288	3
HLD	71	0	3	192
TAP	71	288	4
HLD	72	0	4	96
TAP	72	144	5
TAP	72	192	5
TAP	72	336	5
TAP	73	0	5
TAP	73	48	5
HLD	73	96	5	192
TAP	74	0	0
TAP	74	192	7
TAP	75	0	1
TAP	75	96	2
TAP	75	192	3
TAP	76	0	3
TAP	76	192	4
TAP	77	0	5
TAP	77	96	6
TAP	77	192	7
TAP	78	0	0
TAP	78	192	1
TAP	79	0	0
TAP	79	96	1
TAP	79	192	0
TAP	80	0	7
TAP	80	192	6
TAP	81	0	7
TAP	81	96	6
TAP	81	192	7
BRK	81	288	0
BRK	81	288	7

T_REC_TAP	170
T_REC_BRK	9
T_REC_XTP	0
T_REC_HLD	31
T_REC_XHO	0
T_REC_STR	5
T_REC_BST	0
T_REC_XST	0
T_REC_TTP	0
T_REC_THO	0
T_REC_SLD	5
T_REC_ALL	220
T_NUM_TAP	175
T_NUM_BRK	9
T_NUM_HLD	31
T_NUM_SLD	5
T_NUM_ALL	220
T_JUDGE_TAP	184
T_JUDGE_HLD	145
T_JUDGE_SLD	5
T_JUDGE_ALL	334
TTM_EACHPAIRS	4
TTM_SCR_TAP	87500
TTM_SCR_BRK	23400
TTM_SCR_HLD	31000
TTM_SCR_SLD	7500
TTM_SCR_ALL	149400
TTM_SCR_S	144050
TTM_SCR_SS	148500
TTM_RAT_ACV	10060

